King Kong (1933) [Dual (eng-ptbr)] *FS DVDRip*

Filmes em português (Brasil ou Portugal) (Dubbed).

Moderador: Moderador

Responder
Avatar do Utilizador
arf100c
eMuleCoop
eMuleCoop
Mensagens: 7317
Registado: 08 jun 2009, 15:48

King Kong (1933) [Dual (eng-ptbr)] *FS DVDRip*

Mensagem por arf100c » 07 mai 2012, 01:22

Imagem

Synopsis
Um realizador ousado, Carl Denham, está a planear uma viagem a África para fazer um filme nunca visto. Mas para isso, precisa de contratar uma atriz para o papel principal. Consegue uma rapariga modesta e bonita que leva consigo, nunca contando realmente qual o tema do filme. É apenas quando chegam à ilha onde os nativos veneram um gorila gigantesco e a quem oferecem mulheres, que a situação se complica "King Kong" é um dos maiores clássicos do cinema fantástico.
imdb.com
King Kong (1933)

Capa
Sinopse:A film crew goes to a tropical island for an exotic location shoot and discovers a colossal ape who takes a shine to their female blonde star. He is then captured and brought back to New York City for public exhibition.
Pontuação:7.9
Duração:100 minutos
Idioma:English
Realizador:Merian C. Cooper, Ernest B. Schoedsack
Actores:Fay Wray, Robert Armstrong, Bruce Cabot, Frank Reicher, Sam Hardy
  
Fonte:http://www.imdb.com/title/tt0024216
Última Actualização:Segunda Março 12, 2018 01:51

Código: Selecionar todos

General
Complete name                            : King.Kong.(1933).(Dual.Pt.Br_En).FS.DVDRip.XviD.avi
Format                                   : AVI
Format/Info                              : Audio Video Interleave
File size                                : 775 MiB
Duration                                 : 1h 40mn
Overall bit rate                         : 1 082 Kbps
Writing application                      : VirtualDubMod 1.5.10.2 (build 2542/release)
Writing library                          : VirtualDubMod build 2542/release

Video
ID                                       : 0
Format                                   : MPEG-4 Visual
Format profile                           : Advanced Simple@L5
Format settings, BVOP                    : 2
Format settings, QPel                    : No
Format settings, GMC                     : No warppoints
Format settings, Matrix                  : Default (H.263)
Muxing mode                              : Packed bitstream
Codec ID                                 : XVID
Codec ID/Hint                            : XviD
Duration                                 : 1h 40mn
Bit rate                                 : 812 Kbps
Width                                    : 512 pixels
Height                                   : 384 pixels
Display aspect ratio                     : 4:3
Frame rate                               : 23.976 fps
Color space                              : YUV
Chroma subsampling                       : 4:2:0
Bit depth                                : 8 bits
Scan type                                : Progressive
Compression mode                         : Lossy
Bits/(Pixel*Frame)                       : 0.172
Stream size                              : 581 MiB (75%)
Writing library                          : XviD 1.0.1 (UTC 2004-06-05)

Audio #1
ID                                       : 1
Format                                   : MPEG Audio
Format version                           : Version 1
Format profile                           : Layer 3
Codec ID                                 : 55
Codec ID/Hint                            : MP3
Duration                                 : 1h 40mn
Bit rate mode                            : Constant
Bit rate                                 : 128 Kbps
Channel(s)                               : 1 channel
Sampling rate                            : 48.0 KHz
Compression mode                         : Lossy
Stream size                              : 91.7 MiB (12%)
Alignment                                : Aligned on interleaves
Interleave, duration                     : 42 ms (1.00 video frame)
Interleave, preload duration             : 504 ms

Audio #2
ID                                       : 2
Format                                   : MPEG Audio
Format version                           : Version 1
Format profile                           : Layer 3
Codec ID                                 : 55
Codec ID/Hint                            : MP3
Duration                                 : 1h 40mn
Bit rate mode                            : Constant
Bit rate                                 : 128 Kbps
Channel(s)                               : 1 channel
Sampling rate                            : 48.0 KHz
Compression mode                         : Lossy
Stream size                              : 91.7 MiB (12%)
Alignment                                : Aligned on interleaves
Interleave, duration                     : 42 ms (1.00 video frame)
Interleave, preload duration             : 504 ms

Imagem Imagem
Imagem Imagem
Imagem Imagem

Imagem Imagem
Imagem Imagem
Imagem Imagem
Imagem Imagem


ed2k: King.Kong.(1933).(Dual.Pt.Br_En).FS.DVDRip.XviD.avi  [774.84 Mb]
Não tem Permissão para ver os ficheiros anexados nesta mensagem.

Avatar do Utilizador
tainacan
Utilizador
Utilizador
Mensagens: 558
Registado: 05 mai 2011, 06:04

Re: King Kong (1933) [Dual (eng-ptbr)] *FS DVDRip*

Mensagem por tainacan » 26 mai 2019, 14:36

Uma surpresa para a atriz principal. Obrigada

:tks: :tks: :tks:

:cavalinho: :cavalinho: :cavalinho:

Responder

Voltar para “Filmes Áudio // Movies Sound Doubled”