Assalto ao Trem Pagador (1962) *BR DVDRip*

Filmes em português (Brasil ou Portugal) (Dubbed).

Moderador: Moderador

Responder
Avatar do Utilizador
arf100c
eMuleCoop
eMuleCoop
Mensagens: 7277
Registado: 08 jun 2009, 15:48

Assalto ao Trem Pagador (1962) *BR DVDRip*

Mensagem por arf100c » 29 mar 2012, 21:00

Imagem

Sinopse
Baseado em fatos reais. No interior do Estado do Rio de Janeiro, um grupo de seis homens assalta o trem pagador da estrada de ferro Central do Brasil. Eles decidem só gastar no máximo dez por cento do produto roubado, para não despertar suspeitas da polí­cia. Grilo Peru é morto por Tião Medonho, o lí­der da quadrilha, quando se entrega ao luxo da zona sul. Ao mesmo tempo, a polí­cia fecha o cerco sobre os outros assaltantes, quase todos favelados, até chegar em Tião Medonho.
imdb.com
Assault on the Pay Train (1962)

Capa
Sinopse:Film about the true events in Rio de Janeiro, in 1960, when a gang having the infamous outlaw Tião Medonho as a leader performed a sensational railroad hold-up on a train carrying a small fortune.
Pontuação:7.7
Duração:102 minutos
Idioma:Portuguese
Realizador:Roberto Farias
Actores:Eliezer Gomes, Reginaldo Faria, Jorge Dória, Átila Iório, Ruth de Souza
  
Fonte:http://www.imdb.com/title/tt0056582
Última Actualização:Segunda Março 12, 2018 01:09

Código: Selecionar todos

General
Complete name                            : F:\Incoming\O.Assalto.ao.Trem.Pagador.(1962).DVDRip.XviD.[TheRostrum.net].avi
Format                                   : AVI
Format/Info                              : Audio Video Interleave
File size                                : 871 MiB
Duration                                 : 1 h 42 min
Overall bit rate                         : 1 188 kb/s
Writing application                      : VirtualDubMod 1.5.4.1 (build 2178/release)
Writing library                          : VirtualDubMod build 2178/release

Video
ID                                       : 0
Format                                   : MPEG-4 Visual
Format profile                           : Advanced Simple@L5
Format settings                          : BVOP1 / Custom Matrix
Format settings, BVOP                    : 1
Format settings, QPel                    : No
Format settings, GMC                     : No warppoints
Format settings, Matrix                  : Custom
Codec ID                                 : XVID
Codec ID/Hint                            : XviD
Duration                                 : 1 h 42 min
Bit rate                                 : 989 kb/s
Width                                    : 496 pixels
Height                                   : 368 pixels
Display aspect ratio                     : 4:3
Frame rate                               : 23.976 (24000/1001) FPS
Color space                              : YUV
Chroma subsampling                       : 4:2:0
Bit depth                                : 8 bits
Scan type                                : Progressive
Compression mode                         : Lossy
Bits/(Pixel*Frame)                       : 0.226
Stream size                              : 726 MiB (83%)
Writing library                          : XviD 1.2.0SMP (UTC 2006-01-08)

Audio
ID                                       : 1
Format                                   : AC-3
Format/Info                              : Audio Coding 3
Commercial name                          : Dolby Digital
Codec ID                                 : 2000
Duration                                 : 1 h 42 min
Bit rate mode                            : Constant
Bit rate                                 : 192 kb/s
Channel(s)                               : 2 channels
Channel layout                           : L R
Sampling rate                            : 48.0 kHz
Frame rate                               : 31.250 FPS (1536 SPF)
Compression mode                         : Lossy
Stream size                              : 141 MiB (16%)
Alignment                                : Split across interleaves
Interleave, duration                     : 96  ms (2.30 video frames)
Interleave, preload duration             : 96  ms
Service kind                             : Complete Main


Imagem Imagem
Imagem Imagem


ed2k: O.Assalto.ao.Trem.Pagador.(1962).DVDRip.XviD.[TheRostrum.net].avi  [871.40 Mb]

Avatar do Utilizador
tainacan
Utilizador
Utilizador
Mensagens: 638
Registado: 05 mai 2011, 06:04

Re: Assalto ao Trem Pagador (1962) *BR DVDRip*

Mensagem por tainacan » 06 out 2019, 19:20

Grande filme, obrigada

:tks: :tks: :tks:

:cavalinho: :cavalinho: :cavalinho:

Responder
  • Tópicos Semelhantes
    Respostas
    Visualizações
    Última Mensagem

Voltar para “Filmes Áudio // Movies Sound Doubled”