O Crime do Padre Amaro (2005) [04/04] *TVRip* - DarkGT

Séries rm idioma PT-PT ou PT-BR

Moderador: Moderador

Responder
Avatar do Utilizador
Barefaced
Administrador
Administrador
Mensagens: 36666
Registado: 06 jul 2007, 17:43
Localização: @ Home
Contacto:

O Crime do Padre Amaro (2005) [04/04] *TVRip* - DarkGT

Mensagem por Barefaced » 07 mar 2012, 23:31




Sinopse
A série exibida em quatro episódios baseia-se no filme com o mesmo nome que é actualmente a película portuguesa mais vista da atualidade.

Amaro (Jorge Corrula) é um jovem padre recém-chegado da província, que vem para um bairro de cariz social a fim de substituir o falecido pároco. Aí cruza-se com Amélia (Soraia Chaves), uma jovem sensual e sedutora que irá fazê-lo questionar a sua vocação. A ação decorre num bairro social de Lisboa, onde convivem várias etnias e conhecido pela violência e marginalidade.


[scrape]http://www.imdb.pt/title/tt0487887/[/scrape]

Código: Selecionar todos

General
Complete name                            : O.Crime.do.Padre.Amaro.E01E02.TVRip.XviD-DarkGT.avi
Format                                   : AVI
Format/Info                              : Audio Video Interleave
File size                                : 905 MiB
Duration                                 : 1h 29mn
Overall bit rate mode                    : Variable
Overall bit rate                         : 1 411 Kbps
Writing application                      : VirtualDubMod 1.5.10.2 (build 2540/release)
Writing library                          : VirtualDubMod build 2540/release

Video
ID                                       : 0
Format                                   : MPEG-4 Visual
Format profile                           : Advanced Simple@L5
Format settings, BVOP                    : 1
Format settings, QPel                    : Yes
Format settings, GMC                     : No warppoints
Format settings, Matrix                  : Default (H.263)
Muxing mode                              : Packed bitstream
Codec ID                                 : XVID
Codec ID/Hint                            : XviD
Duration                                 : 1h 29mn
Bit rate                                 : 1 266 Kbps
Width                                    : 704 pixels
Height                                   : 528 pixels
Display aspect ratio                     : 4:3
Frame rate                               : 25.000 fps
Color space                              : YUV
Chroma subsampling                       : 4:2:0
Bit depth                                : 8 bits
Scan type                                : Progressive
Compression mode                         : Lossy
Bits/(Pixel*Frame)                       : 0.136
Stream size                              : 812 MiB (90%)
Writing library                          : XviD 64

Audio
ID                                       : 1
Format                                   : MPEG Audio
Format version                           : Version 1
Format profile                           : Layer 3
Mode                                     : Joint stereo
Codec ID                                 : 55
Codec ID/Hint                            : MP3
Duration                                 : 1h 29mn
Bit rate mode                            : Variable
Bit rate                                 : 132 Kbps
Channel(s)                               : 2 channels
Sampling rate                            : 48.0 KHz
Compression mode                         : Lossy
Stream size                              : 84.6 MiB (9%)
Alignment                                : Aligned on interleaves
Interleave, duration                     : 24 ms (0.60 video frame)
Interleave, preload duration             : 459 ms

====================================================================

General
Complete name                            : O.Crime.do.Padre.Amaro.E03E04.TVRip.XviD-DarkGT.avi
Format                                   : AVI
Format/Info                              : Audio Video Interleave
File size                                : 905 MiB
Duration                                 : 1h 29mn
Overall bit rate mode                    : Variable
Overall bit rate                         : 1 416 Kbps
Writing application                      : VirtualDubMod 1.5.10.2 (build 2540/release)
Writing library                          : VirtualDubMod build 2540/release

Video
ID                                       : 0
Format                                   : MPEG-4 Visual
Format profile                           : Advanced Simple@L5
Format settings, BVOP                    : 1
Format settings, QPel                    : Yes
Format settings, GMC                     : No warppoints
Format settings, Matrix                  : Default (H.263)
Muxing mode                              : Packed bitstream
Codec ID                                 : XVID
Codec ID/Hint                            : XviD
Duration                                 : 1h 29mn
Bit rate                                 : 1 272 Kbps
Width                                    : 704 pixels
Height                                   : 528 pixels
Display aspect ratio                     : 4:3
Frame rate                               : 25.000 fps
Color space                              : YUV
Chroma subsampling                       : 4:2:0
Bit depth                                : 8 bits
Scan type                                : Progressive
Compression mode                         : Lossy
Bits/(Pixel*Frame)                       : 0.137
Stream size                              : 813 MiB (90%)
Writing library                          : XviD 64

Audio
ID                                       : 1
Format                                   : MPEG Audio
Format version                           : Version 1
Format profile                           : Layer 3
Mode                                     : Joint stereo
Mode extension                           : MS Stereo
Codec ID                                 : 55
Codec ID/Hint                            : MP3
Duration                                 : 1h 29mn
Bit rate mode                            : Variable
Bit rate                                 : 131 Kbps
Channel(s)                               : 2 channels
Sampling rate                            : 48.0 KHz
Compression mode                         : Lossy
Stream size                              : 83.6 MiB (9%)
Alignment                                : Aligned on interleaves
Interleave, duration                     : 24 ms (0.60 video frame)
Interleave, preload duration             : 496 ms








[youtube]http://www.youtube.com/watch?v=zeDmHIgBZTU&feature=player_embedded[/youtube]


ed2k: O.Crime.do.Padre.Amaro.E01E02.TVRip.XviD-DarkGT-[TheRostrum.net].avi  [905.04 Mb]
ed2k: O.Crime.do.Padre.Amaro.E03E04.TVRip.XviD-DarkGT-[TheRostrum.net].avi  [905.01 Mb]
Imagem
Imagem

Avatar do Utilizador
adelargodoi
Utilizador
Utilizador
Mensagens: 737
Registado: 21 mar 2010, 14:26

Re: O Crime do Padre Amaro (2005) [04/04] *TVRip* - DarkGT

Mensagem por adelargodoi » 08 mar 2012, 03:16

valeu! :goodpost:

lookfour
Utilizador
Utilizador
Mensagens: 176
Registado: 29 abr 2009, 20:58

Re: O Crime do Padre Amaro (2005) [04/04] *TVRip* - DarkGT

Mensagem por lookfour » 08 mar 2012, 10:59

Sempre quis saber do que se tratava esta história, Obrigado!!!

Responder

Voltar para “Séries Áudio Português”