Final Fantasy Unlimited (2002) (25/25) *Complete*

Animação Japanesa: Séries de televisão, Filmes e OVA (Original Video Animation)
Japanese animation: TV series, Movies and OVA (Original Video Animation)

Moderador: moeke

Responder
Avatar do Utilizador
moeke
Moderador
Moderador
Mensagens: 26291
Registado: 06 set 2010, 23:51
Localização: some were in the anime world

Final Fantasy Unlimited (2002) (25/25) *Complete*

Mensagem por moeke » 16 fev 2012, 21:17

Final Fantasy Unlimited

Imagem


Synopsis
One day, the black pillar appeared suddenly in the Sea of Japan. That is a gate which led to the another world, and monsters have invaded into our world from there. Dr.Hayakawa who was famous for the research of the crust energy went to another world with his wife Marie, and they had come back safely. And, they wrote the book " Kairetsu no hi ( Day of the field row ) ". After that, they never came back though they went to another world again. Their twins' child Yu and Ai went to the station of subway which had been closed. According to " Day of the field row ", the train which goes to the another world comes at midnight. To search for parents, they tried to take this train. At night of the full moon, the train for the another world arrived at 0:13:13. Yu and Ai boarded the train. And as follow Yu and Ai, the girl named Risa also took the train. Who is she? This is an adventure Sci-Fi fantasy of heroine Risa and Kaze whose hometown was destroyed by Kumo. And also, this story is a dark fantasy like the Grimm fairy tale.


Código: Selecionar todos

Producers                     GONZO, avex mode, Square Enix, Dentsu, TV Tokyo
Format                           : AVI
Format/Info                      : Audio Video Interleave
File size                        : 150 MiB
Duration                         : 22mn 45s
Overall bit rate                 : 921 Kbps
Movie name                       : Final Fantasy Unlimited 01
Director                         : #Soldats@ETG
Subject                          : Final Fantasy Unlimited 01
Writing application              : Nandub v1.0rc2
Writing library                  : Nandub build 1853/release
Copyright                        : DO NOT DISTRO AFTER LICENSING
Comment                          : DO NOT DISTRO AFTER LICENSING

Video
Format                           : MPEG-4 Visual
Codec ID                         : DIV3
Codec ID/Hint                    : DivX 3 Low
Duration                         : 22mn 45s
Bit rate                         : 784 Kbps
Width                            : 512 pixels
Height                           : 384 pixels
Display aspect ratio             : 4/3
Frame rate                       : 23.976 fps
Resolution                       : 24 bits
Bits/(Pixel*Frame)               : 0.166
Stream size                      : 128 MiB (85%)

Audio
Format                           : MPEG Audio
Format version                   : Version 1
Format profile                   : Layer 3
Codec ID                         : 55
Codec ID/Hint                    : MP3
Duration                         : 22mn 45s
Bit rate mode                    : Constant
Bit rate                         : 128 Kbps
Channel(s)                       : 2 channels
Sampling rate                    : 48.0 KHz
Resolution                       : 16 bits
Stream size                      : 20.8 MiB (14%)
Alignment                        : Split accross interleaves
Interleave, duration             : 42 ms (1.00 video frame)
Interleave, preload duration     : 500 ms
Subs.                                : English Hard
Categories      Action, Adventure, Fantasy, Mecha, Parallel Universe, SciFi, Seinen


Imagem

Imagem Imagem Imagem Imagem


Eps.
ed2k: Final Fantasy Unlimited - 01.avi  [149.91 Mb]
ed2k: Final Fantasy Unlimited - 02.avi  [158.61 Mb]
ed2k: Final Fantasy Unlimited - 03.avi  [131.16 Mb]
ed2k: Final Fantasy Unlimited - 04.avi  [178.21 Mb]
ed2k: Final Fantasy Unlimited - 05.avi  [128.05 Mb]
ed2k: Final Fantasy Unlimited - 06.avi  [184.16 Mb]
ed2k: Final Fantasy Unlimited - 07.avi  [147.63 Mb]
ed2k: Final Fantasy Unlimited - 08.avi  [126.00 Mb]
ed2k: Final Fantasy Unlimited - 09.avi  [145.86 Mb]
ed2k: Final Fantasy Unlimited - 10.avi  [168.00 Mb]
ed2k: Final Fantasy Unlimited - 11.avi  [181.61 Mb]
ed2k: Final Fantasy Unlimited - 12.avi  [170.57 Mb]
ed2k: Final Fantasy Unlimited - 13.avi  [131.50 Mb]
ed2k: Final Fantasy Unlimited - 14.avi  [151.19 Mb]
ed2k: Final Fantasy Unlimited - 15.avi  [164.12 Mb]
ed2k: Final Fantasy Unlimited - 16.avi  [177.70 Mb]
ed2k: Final Fantasy Unlimited - 17.avi  [183.55 Mb]
ed2k: Final Fantasy Unlimited - 18.avi  [169.47 Mb]
ed2k: Final Fantasy Unlimited - 19.avi  [145.93 Mb]
ed2k: Final Fantasy Unlimited - 20.avi  [145.01 Mb]
ed2k: Final Fantasy Unlimited - 21.avi  [168.67 Mb]
ed2k: Final Fantasy Unlimited - 22.avi  [169.75 Mb]
ed2k: Final Fantasy Unlimited - 23.avi  [155.56 Mb]
ed2k: Final Fantasy Unlimited - 24.avi  [170.10 Mb]
ed2k: Final Fantasy Unlimited - 25.avi  [157.22 Mb]

Enjoy!!
Thanks goes to ishigo31
Imagem

Sorry don't understand Portuguese only English

1 click to download, 1 click to say thank you

Responder

Voltar para “Séries Anime, Filmes e OVA // Anime TV Series, Movies and OVA”