Fighting with My Family (2019) *HDCAM* - VAiN

Uma câmera de vídeo é usada para o vídeo eo áudio é captado a partir da câmara de vídeo (CAM), diretamente de um jack de áudio (TeleSync) ou ambos são retirados das bobinas do cinema (TeleCine). // Where a video camera is used for the video and audio is picked up from the video camera (CAM), directly from an audio jack (TeleSync) or both are taken from the cinema reels (TeleCine).

Moderador: Moderador

Responder
Avatar do Utilizador
unusual
eMulePoster
eMulePoster
Mensagens: 5559
Registado: 27 out 2008, 03:40

Fighting with My Family (2019) *HDCAM* - VAiN

Mensagem por unusual » 14 mar 2019, 17:40

Imagem

Synopsis
Um antigo lutador de wrestling ganha a vida a atuar com a família em pequenas salas pelos Estados Unidos. Enquanto isso, os seus filhos sonham em participar em competições mundiais da modalidade. Baseado numa história real.

The family that fights together, stays together. Headed by reformed gangster Ricky, his wife Julia, and their two kids Zak and Paige, the Bevis family barely gets by wrestling for small audiences at dinky venues. When Zak and Paige have the once in a lifetime chance to audition for the WWE, the family has to navigate the trials that come with the bright lights and big money that comes with fame.
imdb.com
Fighting with My Family (2019)

Capa
Sinopse:A former wrestler and his family make a living performing at small venues around the country while his kids dream of joining World Wrestling Entertainment.
Pontuação:7.6
Duração:108 minutos
Idioma:English
Realizador:Stephen Merchant
Actores:Dwayne Johnson, Thomas Whilley, Tori Ellen Ross, Nick Frost, Lena Headey
  
Fonte:http://www.imdb.com/title/tt6513120
Última Actualização:Quinta Março 14, 2019 17:40

NFO:
Imagem 

:info:
P R E S E N T S . . . . 
Fighting.with.My.Family.2019.HDCAM.XviD-VAiN
 iMDB........: https://www.imdb.com/title/tt6513120/
T E C H N i C A L . i N F O . . .
Format                      : AVI
Format/Info                 : Audio Video Interleave
File size                   : 1.42 GiB
Duration                    : 1 h 45 min
Overall bit rate            : 1 927 kb/s
Writing library             : VirtualDub build 35491/release

Video
ID                          : 0
Format                      : MPEG-4 Visual
Format profile              : Advanced Simple@L5
Format settings             : BVOP2
Format settings, BVOP       : 2
Format settings, QPel       : No
Format settings, GMC        : No warppoints
Format settings, Matrix     : Default (H.263)
Muxing mode                 : Packed bitstream
Codec ID                    : XVID
Codec ID/Hint               : XviD
Duration                    : 1 h 45 min
Bit rate                    : 1 723 kb/s
Width                       : 720 pixels
Height                      : 280 pixels
Display aspect ratio        : 2.571
Frame rate                  : 29.970 (30000/1001) FPS
Color space                 : YUV
Chroma subsampling          : 4:2:0
Bit depth                   : 8 bits
Scan type                   : Progressive
Compression mode            : Lossy
Bits/(Pixel*Frame)          : 0.285
Stream size                 : 1.27 GiB (89%)
Writing library             : XviD 67

Audio
ID                          : 1
Format                      : MPEG Audio
Format version              : Version 1
Format profile              : Layer 3
Format settings             : Joint stereo / MS Stereo
Codec ID                    : 55
Codec ID/Hint               : MP3
Duration                    : 1 h 45 min
Bit rate mode               : Constant
Bit rate                    : 192 kb/s
Channel(s)                  : 2 channels
Sampling rate               : 48.0 kHz
Compression mode            : Lossy
Stream size                 : 145 MiB (10%)
Alignment                   : Split accross interleaves
Interleave, duration        : 33  ms (1.00 video frame)
Interleave, preload duratio : 500  ms

Imagem
:notes:    
SOURCE......: ViDEO...WaTcHeRs...thanks
............: AUDiO...WaTcHeRs...thanks
SAMPLE......: YiP....
ADDED NOTE..: i know it's been a minute but we have been pretty busy with with RLS as of late. 
Trying to get it together and release more. Now on to the encode; pretty good quality didn't have 
to do much but received the vobs, did what needed to be done, added the 0l poo shine and well.... here we are.. 


:screens:

Imagem
Imagem
Imagem
Imagem
Imagem
Imagem

Imagem Imagem
Imagem Imagem
Imagem Imagem


ed2k: Fighting.with.My.Family.(2019).HDCAM.XviD-VAiN.[TheRostrum.net].avi  [1.42 Gb]
Imagem
Imagem

giraldino
Utilizador
Utilizador
Mensagens: 2871
Registado: 22 dez 2010, 22:24

Re: Fighting with My Family (2019) *HDCAM* - VAiN

Mensagem por giraldino » 15 mar 2019, 12:36

Obrigado.

Responder

Voltar para “Filmes Baixa Qualidade // Low Quality (TC, TS, CAM)”