Annabelle: Creation (2017) *TS* - TiTAN

Uma câmera de vídeo é usada para o vídeo eo áudio é captado a partir da câmara de vídeo (CAM), diretamente de um jack de áudio (TeleSync) ou ambos são retirados das bobinas do cinema (TeleCine). // Where a video camera is used for the video and audio is picked up from the video camera (CAM), directly from an audio jack (TeleSync) or both are taken from the cinema reels (TeleCine).

Moderador: Moderador

Responder
Avatar do Utilizador
unusual
eMulePoster
eMulePoster
Mensagens: 5724
Registado: 27 out 2008, 03:40

Annabelle: Creation (2017) *TS* - TiTAN

Mensagem por unusual » 23 ago 2017, 17:29

Imagem


Synopsis
Anos após a perda trágica da sua filha, um criador de bonecas e a sua mulher abrem as portas de sua casa a uma freira e várias raparigas de um orfanato encerrado, sem saber que se vão transformar no alvo de uma boneca possuída criada pelo dono da casa, Annabelle.

In “Annabelle: Creation,” several years after the tragic death of their little girl, a doll maker and his wife welcome a nun and several girls from a shuttered orphanage into their home. They soon become the target of the doll maker’s possessed creation, Annabelle.


imdb.com
Annabelle: Creation (2017)

Capa
Sinopse:12 years after the tragic death of their little girl, a dollmaker and his wife welcome a nun and several girls from a shuttered orphanage into their home, where they soon become the target of the dollmaker's possessed creation, Annabelle.
Pontuação:6.6
Duração:109 minutos
Idioma:English, Spanish
Realizador:David F. Sandberg
Actores:Anthony LaPaglia, Samara Lee, Miranda Otto, Brad Greenquist, Lulu Wilson
  
Fonte:http://www.imdb.com/title/tt5140878
Última Actualização:Segunda Março 12, 2018 07:45


NFO:
Imagem

http://www.imdb.com/title/tt5140878/

Twelve years after the tragic death of their little girl, a dollmaker and his wife welcome a nun and several girls
from a shuttered orphanage into their home, soon becoming the target of the dollmaker's possessed creation, Annabelle.
Director: David F. Sandberg
Writers: Gary Dauberman, Gary Dauberman (based on characters created by)
Stars: Anthony LaPaglia, Samara Lee, Miranda Otto
Genres: Horror | Mystery | Thriller
Country: USA

Source: THE STiG / OWN-TapFm

K here is another TS from us, audio is mint, video is pretty good, just has some annoying blurred watermarks
scrolling thru vid at beginning and a few other spots, for maybe a total of 8-10 min of movie, otherwise vid is
watchable for a dark movie.. Enjoy

General

Format : AVI
Format/Info : Audio Video Interleave
File size : 1.42 GiB
Duration : 1 h 48 min
Overall bit rate : 1 871 kb/s

Video

ID : 0
Format : MPEG-4 Visual
Format profile : Advanced Simple@L5
Format settings, BVOP : 2
Format settings, QPel : No
Format settings, GMC : No warppoints
Format settings, Matrix : Default (H.263)
Codec ID : XVID
Codec ID/Hint : XviD
Duration : 1 h 48 min
Bit rate : 1 670 kb/s
Width : 720 pixels
Height : 304 pixels
Display aspect ratio : 2.35:1
Frame rate : 29.970 (30000/1001) FPS
Color space : YUV
Chroma subsampling : 4:2:0
Bit depth : 8 bits
Scan type : Progressive
Compression mode : Lossy
Bits/(Pixel*Frame) : 0.255
Stream size : 1.27 GiB (89%)
Writing library : XviD 67

Audio

ID : 1
Format : AC-3
Format/Info : Audio Coding 3
Format settings, Endianness : Big
Codec ID : 2000
Duration : 1 h 48 min
Bit rate mode : Constant
Bit rate : 192 kb/s
Channel(s) : 2 channels
Channel positions : Front: L R
Sampling rate : 44.1 kHz
Frame rate : 28.711 FPS (1536 SPF)
Bit depth : 16 bits
Compression mode : Lossy
Stream size : 150 MiB (10%)
Alignment : Aligned on interleaves
Interleave, duration : 70 ms (2.09 video frames)
Interleave, preload duratio : 208 ms
Title : English
Service kind : Complete Main

Imagem
Imagem
Imagem
Imagem
Imagem
Imagem
Imagem
Imagem




Imagem Imagem
Imagem Imagem


ed2k: Annabelle.Creations.(2017).TS.XviD.AC3-TiTAN.[TheRostrum.net].avi  [1.42 Gb]
Imagem
Imagem

fokkinha
Utilizador
Utilizador
Mensagens: 28
Registado: 06 abr 2012, 05:37

Re: Annabelle: Creation (2017) *TS* - TiTAN

Mensagem por fokkinha » 24 ago 2017, 03:23

valeu pelo post

Responder

Voltar para “Filmes Baixa Qualidade // Low Quality (TC, TS, CAM)”