Baby Driver (2017) *TS* - TiTAN

Uma câmera de vídeo é usada para o vídeo eo áudio é captado a partir da câmara de vídeo (CAM), diretamente de um jack de áudio (TeleSync) ou ambos são retirados das bobinas do cinema (TeleCine). // Where a video camera is used for the video and audio is picked up from the video camera (CAM), directly from an audio jack (TeleSync) or both are taken from the cinema reels (TeleCine).

Moderador: Moderador

Responder
Avatar do Utilizador
unusual
eMulePoster
eMulePoster
Mensagens: 5559
Registado: 27 out 2008, 03:40

Baby Driver (2017) *TS* - TiTAN

Mensagem por unusual » 25 jul 2017, 13:22

Imagem


Synopsis
Baby (Ansel Elgort), um jovem e talentoso condutor, especialista em fugas em assaltos, confia na batida da sua banda sonora pessoal para ser o melhor. Quando encontra a miúda dos seus sonhos, Baby vê nela a oportunidade de deixar para trás a sua vida de crime e sair de forma airosa desse universo. No entanto, ao ver-se coagido a trabalhar para um chefe do crime, e quando um golpe condenado ameaça a sua vida, o seu romance e a sua liberdade, ele terá de optar pela música certa…

A talented, young getaway driver (Ansel Elgort) relies on the beat of his personal soundtrack to be the best in the game. When he meets the girl of his dreams (Lily James), Baby sees a chance to ditch his criminal life and make a clean getaway. But after being coerced into working for a crime boss (Kevin Spacey), he must face the music when a doomed heist threatens his life, love and freedom.


imdb.com
Baby Driver (2017)

Capa
Sinopse:After being coerced into working for a crime boss, a young getaway driver finds himself taking part in a heist doomed to fail.
Pontuação:7.7
Duração:112 minutos
Idioma:English, American Sign Language
Realizador:Edgar Wright
Actores:Ansel Elgort, Jon Bernthal, Jon Hamm, Eiza González, Micah Howard
  
Fonte:http://www.imdb.com/title/tt3890160
Última Actualização:Segunda Março 12, 2018 09:04


NFO:
Imagem


Imagem
Summary : After being coerced into working for a crime boss, a young getaway driver finds himself taking part
in a heist doomed to fail.


Imagem
Baby Driver 2017 TS XviD TiTAN

Sources Used: Vid - ILUVDATASS // Audio - TapFM
NOTE: synced very nice line to it

https://www.imdb.com/title/tt3890160/

General
Complete name: Baby Driver 2017 TS XviD TiTAN.avi
Format: AVI
Format/Info: Audio Video Interleave
File size: 1.12 GiB
Duration: 1 h 49 min
Overall bit rate: 1 459 kb/s
Writing library: VirtualDub build 35491/release

Video
ID: 0
Format: mp43
Codec ID: mp43
Duration: 1 h 49 min
Bit rate: 1 193 kb/s
Width: 720 pixels
Height: 306 pixels
Display aspect ratio: 2.35:1
Frame rate: 30.000 FPS
Bits/(Pixel*Frame): 0.180
Stream size: 938 MiB (82%)

Audio
ID: 1
Format: MPEG Audio
Codec ID: 55
Codec ID/Hint: MP3
Duration: 1 h 49 min
Bit rate: 256 kb/s
Channel(s): 2 channels
Sampling rate: 44.1 kHz
Compression mode: Lossy
Stream size: 200 MiB (17%)
Alignment: Split accross interleaves
Interleave, duration: 34 ms (1.01 video frame)
Interleave, preload duration: 500 ms


Imagem
Imagem
Imagem
Imagem
Imagem
Imagem
Imagem
Imagem



Imagem Imagem
Imagem Imagem


ed2k: Baby.Driver.(2017).TS.XviD.AC3-TiTAN.[TheRostrum.net].avi  [1.12 Gb]
Imagem
Imagem

giraldino
Utilizador
Utilizador
Mensagens: 2871
Registado: 22 dez 2010, 22:24

Re: Baby Driver (2017) *TS* - TiTAN

Mensagem por giraldino » 25 jul 2017, 15:10

Obrigado.

Responder

Voltar para “Filmes Baixa Qualidade // Low Quality (TC, TS, CAM)”