The Fate of the Furious (2017) *HDCAM* - Hive-CM8

Uma câmera de vídeo é usada para o vídeo eo áudio é captado a partir da câmara de vídeo (CAM), diretamente de um jack de áudio (TeleSync) ou ambos são retirados das bobinas do cinema (TeleCine). // Where a video camera is used for the video and audio is picked up from the video camera (CAM), directly from an audio jack (TeleSync) or both are taken from the cinema reels (TeleCine).

Moderador: Moderador

Responder
Avatar do Utilizador
unusual
eMulePoster
eMulePoster
Mensagens: 5759
Registado: 27 out 2008, 03:40

The Fate of the Furious (2017) *HDCAM* - Hive-CM8

Mensagem por unusual » 14 abr 2017, 23:17

Imagem


Synopsis
Agora que Dom e Letty estão em lua-de-mel, e Brian e Mia afastaram-se – e o resto do grupo foi exonerado – a equipa que corre o mundo encontrou algo semelhante a uma vida normal. Porém, quando uma misteriosa mulher seduz Dom para o mundo do crime, do qual parece não ser capaz de escapar, ele acaba por trair aqueles lhe são mais próximos, pondo-os à prova. Desde as margens de Cuba e as ruas de Nova Iorque até às planícies geladas do ártico do Mar de Barents, a nossa força de elite vai atravessar o mundo para impedir que um anarquista lance o caos no cenário mundial… e trazer de volta a casa o homem que os tornou numa família.

Now that Dom and Letty are on their honeymoon and Brian and Mia have retired from the game—and the rest of the crew has been exonerated—the globetrotting team has found a semblance of a normal life. But when a mysterious woman (Charlize Theron) seduces Dom into the world of crime he can’t seem to escape and a betrayal of those closest to him, they will face trials that will test them as never before. From the shores of Cuba and the streets of New York City to the icy plains off the arctic Barents Sea, our elite force will crisscross the globe to stop an anarchist from unleashing chaos on the world’s stage…and to bring home the man who made them a family.


imdb.com
The Fate of the Furious (2017)

Capa
Sinopse:When a mysterious woman seduces Dom into the world of terrorism and a betrayal of those closest to him, the crew face trials that will test them as never before.
Pontuação:6.7
Duração:136 minutos
Idioma:English, Russian
Realizador:F. Gary Gray
Actores:Vin Diesel, Jason Statham, Dwayne Johnson, Michelle Rodriguez, Tyrese Gibson
  
Fonte:http://www.imdb.com/title/tt4630562
Última Actualização:Segunda Março 12, 2018 07:55


NFO:
Imagem


The.Fate.of.the.Furious.2017.HDCAM.HQMic.XVID.AC3.HQ.Hive-CM8

Thx Hive

CM8 Doing It Right The First Time

Sources:
Video: Latino
Audio: friend
big thx m8

Notes:
Got this great cam for this hot new movie, quality was very nice and bright and video is complete too.
Audio is very good too nearly sounds like line, fits perfectly together!

Encode:
not much to do quality was already nice enough only did the usual touch.
will do me till webdl/retail, thats the version to get, jump on
enjoy

Video: 720x304 @bitrate 1800 2pass
Audio: English HQMic AC3 2.0 stereo
Sample: yes 2 included

http://www.imdb.com/title/tt4630562/

General
Complete name : The.Fate.of.the.Furious.2017.HDCAM.HQMic.XVID.AC3.HQ.Hive-CM8.avi
Format : AVI
Format/Info : Audio Video Interleave
File size : 1.83 GiB
Duration : 2h 6mn
Overall bit rate : 2 067 Kbps
Writing application : Nandub v1.0rc2
Writing library : Nandub build 1853/release

Video
ID : 0
Format : MPEG-4 Visual
Format profile : Advanced Simple@L5
Format settings, BVOP : 2
Format settings, QPel : Yes
Format settings, GMC : No warppoints
Format settings, Matrix : Default (H.263)
Muxing mode : Packed bitstream
Codec ID : XVID
Codec ID/Hint : XviD
Duration : 2h 6mn
Bit rate : 1 800 Kbps
Width : 720 pixels
Height : 304 pixels
Display aspect ratio : 2.35:1
Frame rate : 29.970 fps
Color space : YUV
Chroma subsampling : 4:2:0
Bit depth : 8 bits
Scan type : Progressive
Compression mode : Lossy
Bits/(Pixel*Frame) : 0.274
Stream size : 1.59 GiB (87%)
Writing library : XviD 1.2.1 (UTC 2008-12-04)

Audio
ID : 1
Format : AC-3
Format/Info : Audio Coding 3
Mode extension : CM (complete main)
Format settings, Endianness : Big
Codec ID : 2000
Duration : 2h 6mn
Bit rate mode : Constant
Bit rate : 256 Kbps
Channel(s) : 2 channels
Channel positions : Front: L R
Sampling rate : 48.0 KHz
Bit depth : 16 bits
Compression mode : Lossy
Delay relative to video : 28ms
Stream size : 232 MiB (12%)
Alignment : Split accross interleaves
Interleave, duration : 33 ms (1.00 video frame)
Interleave, preload duration : 500 ms

Screens

Imagem
Imagem
Imagem
Imagem
Imagem
Imagem
Imagem

Plot

When a mysterious woman seduces Dom into the world of terrorism and a betrayal of those closest to him,
the crew face trials that will test them as never before.


Cast overview, first billed only:

Vin Diesel ... Dom
Jason Statham ... Deckard
Dwayne Johnson ... Hobbs
Michelle Rodriguez ... Letty
Tyrese Gibson ... Roman
Ludacris ... Tej Parker (as Chris 'Ludacris' Bridges)
Charlize Theron ... Cipher
Kurt Russell ... Mr. Nobody
Nathalie Emmanuel ... Ramsey
Luke Evans ... Owen
Elsa Pataky ... Elena
Kristofer Hivju ... Rhodes
Scott Eastwood ... Little Nobody
Patrick St. Esprit ... DS Allan
Janmarco Santiago ... Fernando


COME FIND US WE DONT BITE



Imagem Imagem
Imagem Imagem
Imagem Imagem


ed2k: The.Fate.of.the.Furious.(2017).HDCAM.HQMic.XviD.AC3.HQ.Hive-CM8.[TheRostrum.net].avi  [1.83 Gb]
Imagem
Imagem

Responder

Voltar para “Filmes Baixa Qualidade // Low Quality (TC, TS, CAM)”