A Dog's Purpose (2017) [HC] *TCRip* - Hive-CM8

Uma câmera de vídeo é usada para o vídeo eo áudio é captado a partir da câmara de vídeo (CAM), diretamente de um jack de áudio (TeleSync) ou ambos são retirados das bobinas do cinema (TeleCine). // Where a video camera is used for the video and audio is picked up from the video camera (CAM), directly from an audio jack (TeleSync) or both are taken from the cinema reels (TeleCine).

Moderador: Moderador

Responder
Avatar do Utilizador
unusual
eMulePoster
eMulePoster
Mensagens: 5573
Registado: 27 out 2008, 03:40

A Dog's Purpose (2017) [HC] *TCRip* - Hive-CM8

Mensagem por unusual » 30 mar 2017, 06:57

Imagem


Synopsis
Baseada no adorado romance bestseller de W. Bruce Cameron, a surpreendente e comovente estória de um cão dedicado que encontra o significado da sua própria existência através das vidas dos humanos que ele ensina a rir e amar.

Based on the beloved bestselling novel by W. Bruce Cameron, A Dog's Purpose, from director Lasse Hallström (The Cider House Rules, Dear John, The 100-Foot Journey), shares the soulful and surprising story of one devoted dog (voiced by Josh Gad) who finds the meaning of his own existence through the lives of the humans he teaches to laugh and love. The family film told from the dog's perspective also stars Dennis Quaid, Peggy Lipton, Britt Robertson, K.J. Apa, Juilet Rylance, Luke Kirby, John Ortiz and Pooch Hall.


imdb.com
A Dog's Purpose (2017)

Capa
Sinopse:A dog looks to discover his purpose in life over the course of several lifetimes and owners.
Pontuação:6.9
Duração:100 minutos
Idioma:English
Realizador:Lasse Hallström
Actores:Josh Gad, Dennis Quaid, Peggy Lipton, Bryce Gheisar, K.J. Apa
  
Fonte:http://www.imdb.com/title/tt1753383
Última Actualização:Segunda Março 12, 2018 09:24


NFO:
Imagem

A.Dogs.Purpose.2017.HC.TCRip.XVID.AC3.HQ.Hive-CM8

Thx Hive

CM8 Doing It Right The First Time

Sources:
Video: 1,4gb Chinese Hardcoded 720P TC
Audio: English Line/Studio
thx

Notes:
Found the Chinese Telecinevideo, quality was nice,although bitrate could have been higher.
has the usual chinese subs and some watermarks, a mix of floating and constant ones switching around.
removing them all would look odd, so i only blurred the spots which had a annoying constant big white mark
The constant ones were shown for 20mins each in the corners, so they are gone, the rest are here and theire
for cpl secs only..

Encode:
fixed brightness,contrast,rgb and added bit sharpness. it came with english studio line audio but was oos a lot,
so i resynced audioall good now
will do me till retail
enjoy

Video: 720x336 @bitrate 1700 2pass
Audio: English Studio/Line AC3 2.0 stereo
Sample: yes included

http://www.imdb.com/title/tt1753383/

General
Complete name : A.Dogs.Purpose.2017.HC.TCRip.XVID.AC3.HQ.Hive-CM8.avi
Format : AVI
Format/Info : Audio Video Interleave
File size : 1.28 GiB
Duration : 1h 33mn
Overall bit rate : 1 953 Kbps
Writing application : Nandub v1.0rc2
Writing library : Nandub build 1853/release

Video
ID : 0
Format : MPEG-4 Visual
Format profile : Advanced Simple@L5
Format settings, BVOP : 2
Format settings, QPel : Yes
Format settings, GMC : No warppoints
Format settings, Matrix : Default (H.263)
Muxing mode : Packed bitstream
Codec ID : XVID
Codec ID/Hint : XviD
Duration : 1h 33mn
Bit rate : 1 688 Kbps
Width : 720 pixels
Height : 336 pixels
Display aspect ratio : 2.143
Frame rate : 25.000 fps
Color space : YUV
Chroma subsampling : 4:2:0
Bit depth : 8 bits
Scan type : Progressive
Compression mode : Lossy
Bits/(Pixel*Frame) : 0.279
Stream size : 1.11 GiB (86%)
Writing library : XviD 1.2.1 (UTC 2008-12-04)

Audio
ID : 1
Format : AC-3
Format/Info : Audio Coding 3
Mode extension : CM (complete main)
Format settings, Endianness : Big
Codec ID : 2000
Duration : 1h 33mn
Bit rate mode : Constant
Bit rate : 256 Kbps
Channel(s) : 2 channels
Channel positions : Front: L R
Sampling rate : 48.0 KHz
Bit depth : 16 bits
Compression mode : Lossy
Stream size : 172 MiB (13%)
Alignment : Split accross interleaves
Interleave, duration : 40 ms (1.00 video frame)
Interleave, preload duration : 500 ms

Screens

Imagem
Imagem
Imagem
Imagem
Imagem
Imagem

Plot

A dog looks to discover his purpose in life over the course of several lifetimes and owners.

Cast overview, first billed only:

Josh Gad ... Bailey / Buddy / Tino / Ellie (voice)
Dennis Quaid ... Adult Ethan
Peggy Lipton ... Adult Hannah
K.J. Apa ... Teen Ethan (as KJ Apa)
Bryce Gheisar ... Ethan - 8 Years Old
Juliet Rylance ... Ethan's Mom
Luke Kirby ... Ethan's Dad
Gabrielle Rose ... Grandma Fran
Michael Bofshever ... Grandpa Bill
Britt Robertson ... Teen Hannah
Logan Miller ... Todd
Kirby Howell-Baptiste ... Maya
Pooch Hall ... Al
John Ortiz ... Carlos
Nicole LaPlaca ... Wendi


COME FIND US WE DONT BITE



Imagem Imagem
Imagem Imagem
Imagem Imagem


ed2k: A.Dogs.Purpose.(2017).HC.TCRip.XVID.AC3.HQ.Hive-CM8.[TheRostrum.net].avi  [1.28 Gb]
Imagem
Imagem

Responder

Voltar para “Filmes Baixa Qualidade // Low Quality (TC, TS, CAM)”