Logan (2017) *HDCAM* - UnKnOwN

Uma câmera de vídeo é usada para o vídeo eo áudio é captado a partir da câmara de vídeo (CAM), diretamente de um jack de áudio (TeleSync) ou ambos são retirados das bobinas do cinema (TeleCine). // Where a video camera is used for the video and audio is picked up from the video camera (CAM), directly from an audio jack (TeleSync) or both are taken from the cinema reels (TeleCine).

Moderador: Moderador

Responder
Avatar do Utilizador
unusual
eMulePoster
eMulePoster
Mensagens: 5554
Registado: 27 out 2008, 03:40

Logan (2017) *HDCAM* - UnKnOwN

Mensagem por unusual » 09 mar 2017, 21:33

Imagem


Synopsis
Em 2029, Logan (Hugh Jackman) ganha a vida como motorista de limousine para cuidar do nonagenário Charles Xavier (Patrick Stewart). Debilitado fisicamente e esgotado emocionalmente, ele é procurado por Gabriela (Elizabeth Rodriguez), uma mexicana que precisa da ajuda do ex-X-Men para defender a pequena Laura Kinney / X-23 (Dafne Keen). Ao mesmo tempo em que recusa a voltar, Logan é perseguido pelo mercenário Donald Pierce (Boyd Holbrook), interessado na pequena Laura.

It's 2029. Mutants are gone--or very nearly so. An isolated, despondent Logan is drinking his days away in a hideout on a remote stretch of the Mexican border, picking up petty cash as a driver for hire. His companions in exile are the outcast Caliban and an ailing Professor X, whose singular mind is plagued by worsening seizures. But Logan's attempts to hide from the world and his legacy abruptly end when a mysterious woman appears with an urgent request--that Logan shepherd an extraordinary young girl to safety. Soon, the claws come out as Logan must face off against dark forces and a villain from his own past on a live-or-die mission, one that will set the time-worn warrior on a path toward fulfilling his destiny.


imdb.com
Logan (2017)

Capa
Sinopse:In the near future, a weary Logan cares for an ailing Professor X, somewhere on the Mexican border. However, Logan's attempts to hide from the world, and his legacy, are upended when a young mutant arrives, pursued by dark forces.
Pontuação:8.1
Duração:137 minutos
Idioma:English, Spanish
Realizador:James Mangold
Actores:Hugh Jackman, Patrick Stewart, Dafne Keen, Boyd Holbrook, Stephen Merchant
  
Fonte:http://www.imdb.com/title/tt3315342
Última Actualização:Segunda Março 12, 2018 11:08


NFO:
╔═──────────────────────────────═══════════════───────────────────────────────═╗
║   ║
║ ::: :::   :::::   :::   ::: :::::   :::    ::: ::: ::::: ║
║ ::: :::  :::::::   :::   ::: ::::::: :::::   ::: ::: ::::::: ║
║ ::: :::  :::::::::  :::   :::   :::::::::  ::: :::  ::: ::: ::::::::: ║
║ ::: :::  :::   :::  :::  :::    :::   :::  ::: :::  ::: ::: :::   ::: ║
║ ::: :::  :::   :::  :::::::     :::  :::  ::: ::: ::: ::: :::   ::: ║
║ ::: :::  :::   :::  ::::::     :::  :::  ::: ::: ::: : ::: :::   ::: ║
║ ::: :::  :::   :::  :::::::     :::  :::  ::: ::: ::: ::: ::: :::   ::: ║
║ ::: :::  :::   :::  :::  :::    :::  :::  ::: ::: ::: : : ::: :::   ::: ║
║ :::..:::  :::   :::  :::   :::   :::  :::  ::: ::: ::::: ::::: :::   ::: ║
║  ::::::   :::   :::  :::    :::  :::  :::   :::::   ::::: ::::: :::   ::: ║
║  ::::   :::   :::  :::    ::: :::  :::    :::   :::: :::: :::   ::: ║
╠═──────────────────────────────═══════════════───────────────────────────────═╣
║ ║
│╨ ╨ ╨ ╨ ╨ ╨ ╨ ╨ ╨ ╨ ╨ ╨ ╨ ╨ ╨ ╨ ╨ NOTES ╨ ╨ ╨ ╨ ╨ ╨ ╨ ╨ ╨ ╨ ╨ ╨ ╨ ╨ ╨ ╨ ╨ ╨ │
│ │
│╨ ╨ ╨ ╨ ╨ ╨ ╨ ╨ ╨ ╨ ╨ ╨ ╨ ╨ ╨ ╨ ╨ NOTES ╨ ╨ ╨ ╨ ╨ ╨ ╨ ╨ ╨ ╨ ╨ ╨ ╨ ╨ ╨ ╨ ╨ ╨ │
│ │
│ Logan 2017 HDCAM XviD UnKnOwN │
│ │
│ Encoded By .......:UnKnOwN │
│ Runtime ..........: 2HR:10min │
│ IMDb URL .........: http://www.imdb.com/title/tt3315342 │
│ Language .........:English │
│ File Size ........: 2.24 GB │
│ Release Date ......... 2017 │
│ Source ...........: Mr.Miyagi │
│ File Type ........: AVI │
│ Genre ............: Action, Drama, Sci-Fi │
│ │
│ │
│ │
│ │
│ Video │
│ ID : 0 │
│ Format : AVI │
│ Format/Info : MPEG-4 Visual │
│ File size : 1.51 GiB │
│ Duration : 1h 53mn │
│ Overall bit rate : 1 902 Kbps │
│ Writing library : VirtualDub build 35491/release │
│ │
│ Video │
│ ID : 0 │
│ Format : MPEG-4 Visual │
│ Format profile : Advanced Simple@L4 │
│ Format settings, BVOP : 2 │
│ Format settings, QPel : No │
│ Format settings, GMC : No warppoints │
│ Format settings, Matrix : Default (H.263) │
│ Codec ID : DIVX │
│ Codec ID/Info : Project Mayo │
│ Codec ID/Hint : DivX 4 │
│ Duration : 2 h 10 min │
│ Bit rate : 2 339 kb/s │
│ Width : 718 pixels │
│ Height : 328 pixels │
│ Display aspect ratio : 2.2:1 │
│ Frame rate : 29.970 (29970/1000) FPS │
│ Color space : YUV │
│ Chroma subsampling : 4:2:0 │
│ Bit depth : 8 bits │
│ Scan type : Progressive │
│ Compression mode : Lossy │
│ Bits/(Pixel*Frame) : 0.331 │
│ Stream size : 2.14 GiB (95%) │
│ Writing library : XviD 64 │
│ │
│ Audio │
│ ID : 1 │
│ Format : AAC │
│ Format/Info : Advanced Audio Codec │
│ Format profile : LC │
│ Codec ID : FF │
│ Codec ID/Hint : MP3 │
│ Source duration : 1 h 38 min │
│ Bit rate : 128 kb/s │
│ Channel(s) : 2 channels │
│ Channel positions : Front: L R │
│ Sampling rate : 44.1 kHz │
│ Frame rate : 43.066 FPS (1024 spf) │
│ Compression mode : Lossy │
│ Stream size : 90.1 MiB (4%) │
│ Alignment : Split accross interleaves │
│ Interleave, duration : 23 ms (0.70 video frame) │
│ │
│ │
│ │
│ │
│ │
│ │
│ │
│ │
│ Plot: │
│ Check Imdb │
│ │
│ │
│ │
│ RELEASE INFO │
│ UnKnOwN specializes in turd too now! │
│ We go knee deep in turd just for your convenience! │
│ │
│ │
╚══════════════════════════════════════════════════════════════════════════════╝
╔═╦═══════╗ ╔─╦──╦───╦────╦═───═╦═───═╦────╦───╦──╦─╗ ╔═══════╦═╗
╚╬╝ ╚─═════─═╝═╩══╩═══╩════╩═════╩═════╩════╩═══╩══╩═╚═─═════─═╝ ╚╬╝
║ ║
║ LOOKING FOR ║
║ Supplier ║
║ ________ ║
║ ║
║ Cammer wanted ║
║ ║
║ Unrelease Cam/TS/itunes movie/WEB-DL/Screener/DVD/Blueray ║
║ Uk and US cammers wanted ║
║ Need suppliers for audio and video ║
║ and people who are good in searching shit from net ║
║ ║
║ UnKnOwN is back recruiting,if you have anything email us. ║
║ ║
║ unknownreleasegroup@gmail.com ║
║ ║
║ ║
╔╬╦══════════════════════════════════════════════════════════════════════════╦╬╗
╚╦╝ ╨ ╨ ╨ ╨ ╨ ╨ ╨ ╨ ╨ ╨ ╨ ╨ ╨ ╨ GREETZ & RESPECT ╨ ╨ ╨ ╨ ╨ ╨ ╨ ╨ ╨ ╨ ╨ ╨ ╨ ╨╚╦╝
╚═══════════════════════╦══════════════════════════════╦═════════════════════╝
║ NOBODY YET WILL LET YOU KNOW ║
║ ║
║ MORE GOODIES COMING REAL SOON║
╚══════════════════════════════╝



Imagem Imagem
Imagem Imagem


ed2k: Logan.(2017).HDCAM.XviD-UnKnOwN.[TheRostrum.net].avi  [2.24 Gb]
Imagem
Imagem

Responder

Voltar para “Filmes Baixa Qualidade // Low Quality (TC, TS, CAM)”