The Dentist (1996-1998)

Moderador: Moderador

Responder
Avatar do Utilizador
MuMuGoN
eMuleCoop
eMuleCoop
Mensagens: 581
Registado: 23 jul 2012, 02:08

The Dentist (1996-1998)

Mensagem por MuMuGoN » 06 ago 2014, 04:31

Imagem


Sinopse
Dr. Allan Feinstone é um dentista conceituado que tem tudo o que poderia querer na vida: uma bela mulher, uma casa enorme e uma carreira de sucesso. Tudo muda de figura quando descobre que a sua esposa está envolvida num caso amoroso com o rapaz que faz a manutenção da piscina. Numa das mais agressivas crises de esquizofrenia, compreende que por mais que uma superfície se encontre completamente limpa existe sempre um cheiro de podridão. Esta teoria irá ser posta em prática, por este dentista que se encontra completamente louco e que decreta tortura dental aos seus pacientes.


imdb.com
The Dentist (1996)

Capa
Sinopse:An extremely successful dentist goes off the deep end after he catches his wife cheating on him.
Pontuação:5.2
Duração:92 minutos
Idioma:English
Realizador:Brian Yuzna
Actores:Corbin Bernsen, Linda Hoffman, Michael Stadvec, Ken Foree, Tony Noakes
  
Fonte:http://www.imdb.com/title/tt0116075
Última Actualização:Segunda Março 12, 2018 04:39


Código: Selecionar todos

   General  
      Complete name : The.Dentist.(1996).DVDRip.DivX-KamuiX.avi
      Format : AVI
      Format/Info : Audio Video Interleave
      File size : 701 MiB
      Duration : 1h 32mn
      Overall bit rate mode : Variable
      Overall bit rate : 1 061 Kbps
      Writing application : VirtualDubMod 1.5.1.1a (build 1639/release)
      Writing library : VirtualDubMod build 1639/release
   Video #0
      ID : 0
      Format : MPEG-4 Visual
      Format settings, BVOP : 1
      Format settings, QPel : No
      Format settings, GMC : 2 warppoints
      Format settings, Matrix : Default (H.263)
      Muxing mode : Packed bitstream
      Codec ID : DX50
      Codec ID/Hint : DivX 5
      Duration : 1h 32mn
      Bit rate : 923 Kbps
      Width : 672 pixels
      Height : 352 pixels
      Display aspect ratio : 1.909
      Frame rate : 23.976 fps
      Color space : YUV
      Chroma subsampling : 4:2:0
      Bit depth : 8 bits
      Scan type : Progressive
      Compression mode : Lossy
      Bits/(Pixel*Frame) : 0.163
      Stream size : 610 MiB (87%)
      Writing library : DivX 5.0.5 (UTC 2003-04-24)
   Audio #1
      ID : 1
      Format : MPEG Audio
      Format version : Version 1
      Format profile : Layer 3
      Mode : Joint stereo
      Mode extension : MS Stereo
      Codec ID : 55
      Codec ID/Hint : MP3
      Duration : 1h 32mn
      Bit rate mode : Variable
      Bit rate : 128 Kbps
      Channel(s) : 2 channels
      Sampling rate : 48.0 KHz
      Compression mode : Lossy
      Stream size : 82.4 MiB (12%)
      Alignment : Aligned on interleaves
      Interleave, duration : 24 ms (0.58 video frame)
      Interleave, preload duration : 446 ms
      Writing library : LAME3.93
      Encoding settings : -m j -V 4 -q 2 -lowpass 17.5 --abr 128



Imagem Imagem
Imagem Imagem
Imagem Imagem


[youtube]http://www.youtube.com/watch?v=7mFkZLve0qw[/youtube]


ed2k: The.Dentist.(1996).DVDRip.DivX-KamuiX.avi  [700.82 Mb]

The.Dentist.1996.DVDRip.DivX-KamuiX.rar




Imagem


Sinopse
Corbin Bernsen está de volta como o sádico dentista Alan Feinstone, que consegue fugir do hospício onde tinha sido internado no fim do primeiro filme. Ele chega a uma pequena cidade do interio de Paradise, onde pretende estabelecer-se com o nome falso de Larry Caine e esquecer os crimes que cometeu no passado.


imdb.com
The Dentist 2 (1998)

Capa
Sinopse:Dr. Caine, the murdering dentist from the original movie, has escaped from the mental hospital where he has been since being caught. Hoping to resume a normal life, he makes his way to a ...
Pontuação:4.3
Duração:100 minutos
Idioma:English
Realizador:Brian Yuzna
Actores:Corbin Bernsen, Jillian McWhirter, Jeff Doucette, Susanne Wright, Jim Antonio
  
Fonte:http://www.imdb.com/title/tt0161492
Última Actualização:Segunda Março 12, 2018 06:04


Código: Selecionar todos

General
Complete name                            : The.Dentist.2.(1998).DVDRip.AVC.[TheRostrum.net].mp4
Format                                   : MPEG-4
Format profile                           : Base Media / Version 2
Codec ID                                 : mp42
File size                                : 710 MiB
Duration                                 : 1h 38mn
Overall bit rate mode                    : Variable
Overall bit rate                         : 1 006 Kbps
Encoded date                             : UTC 2014-04-12 01:59:35
Tagged date                              : UTC 2014-04-12 02:19:50
Writing application                      : HandBrake 0.9.9 2013052900

Video
ID                                       : 1
Format                                   : AVC
Format/Info                              : Advanced Video Codec
Format profile                           : Main@L4.0
Format settings, CABAC                   : Yes
Format settings, ReFrames                : 4 frames
Codec ID                                 : avc1
Codec ID/Info                            : Advanced Video Coding
Duration                                 : 1h 38mn
Bit rate                                 : 841 Kbps
Width                                    : 720 pixels
Height                                   : 462 pixels
Display aspect ratio                     : 1.85:1
Frame rate mode                          : Variable
Frame rate                               : 23.976 fps
Minimum frame rate                       : 9.990 fps
Maximum frame rate                       : 29.970 fps
Color space                              : YUV
Chroma subsampling                       : 4:2:0
Bit depth                                : 8 bits
Scan type                                : Progressive
Bits/(Pixel*Frame)                       : 0.105
Stream size                              : 593 MiB (84%)
Writing library                          : x264 core 130 r2273 b3065e6
Encoding settings                        : cabac=1 / ref=1 / deblock=1:0:0 / analyse=0x1:0x111 / me=hex / subme=2 / psy=1 / psy_rd=1.00:0.00 / mixed_ref=0 / me_range=16 / chroma_me=1 / trellis=0 / 8x8dct=0 / cqm=0 / deadzone=21,11 / fast_pskip=1 / chroma_qp_offset=0 / threads=4 / lookahead_threads=1 / sliced_threads=0 / nr=0 / decimate=1 / interlaced=0 / bluray_compat=0 / constrained_intra=0 / bframes=3 / b_pyramid=2 / b_adapt=1 / b_bias=0 / direct=1 / weightb=1 / open_gop=0 / weightp=1 / keyint=240 / keyint_min=24 / scenecut=40 / intra_refresh=0 / rc_lookahead=10 / rc=crf / mbtree=1 / crf=20.0 / qcomp=0.60 / qpmin=0 / qpmax=69 / qpstep=4 / vbv_maxrate=20000 / vbv_bufsize=25000 / crf_max=0.0 / nal_hrd=none / ip_ratio=1.40 / aq=1:1.00
Encoded date                             : UTC 2014-04-12 01:59:35
Tagged date                              : UTC 2014-04-12 02:19:50
Color primaries                          : BT.601 NTSC
Transfer characteristics                 : BT.709
Matrix coefficients                      : BT.601

Audio
ID                                       : 2
Format                                   : AAC
Format/Info                              : Advanced Audio Codec
Format profile                           : LC
Codec ID                                 : 40
Duration                                 : 1h 38mn
Bit rate mode                            : Variable
Bit rate                                 : 160 Kbps
Maximum bit rate                         : 288 Kbps
Channel(s)                               : 2 channels
Channel positions                        : Front: L R
Sampling rate                            : 48.0 KHz
Compression mode                         : Lossy
Stream size                              : 113 MiB (16%)
Language                                 : English
Encoded date                             : UTC 2014-04-12 01:59:35
Tagged date                              : UTC 2014-04-12 02:19:50

Menu
ID                                       : 3
Codec ID                                 : text
Duration                                 : 1h 38mn
Encoded date                             : UTC 2014-04-12 01:59:35
Tagged date                              : UTC 2014-04-12 02:19:50
Bit rate mode                            : VBR



Imagem Imagem
Imagem Imagem
Imagem Imagem


[youtube]http://www.youtube.com/watch?v=GbvnW3_0Z94[/youtube]


ed2k: The.Dentist.2.(1998).DVDRip.AVC.mp4  [710.13 Mb]

The.Dentist.2.(1998).DVDRip.AVC.rar
Não tem Permissão para ver os ficheiros anexados nesta mensagem.
Última edição por MuMuGoN em 08 ago 2014, 04:52, editado 1 vez no total.
Sim eu sou mal educado e não agradeço/comento qdo clico em algo.

Avatar do Utilizador
Lost_Rider34
Administrador
Administrador
Mensagens: 10736
Registado: 15 out 2008, 14:07
Localização: Aqui
Contacto:

Re: The Dentist (1996-1998)

Mensagem por Lost_Rider34 » 06 ago 2014, 14:02

:goodpost:
Imagem

Avatar do Utilizador
MuMuGoN
eMuleCoop
eMuleCoop
Mensagens: 581
Registado: 23 jul 2012, 02:08

Re: The Dentist (1996-1998)

Mensagem por MuMuGoN » 08 ago 2014, 04:53

Grato por completar o post, tive um probleminha com a mula hj.
Sim eu sou mal educado e não agradeço/comento qdo clico em algo.

Responder

Voltar para “Colecções // Collections”