Star Wars The Complete Saga (1977-2005) [REMUX] *Blu-ray 1080p* - HDRemuX

Moderador: Moderador

Responder
Avatar do Utilizador
Lost_Rider34
Administrador
Administrador
Mensagens: 10712
Registado: 15 out 2008, 14:07
Localização: Aqui
Contacto:

Star Wars The Complete Saga (1977-2005) [REMUX] *Blu-ray 1080p* - HDRemuX

Mensagem por Lost_Rider34 » 23 mar 2019, 12:36

Imagem
Em maio de 1977 chegava aos cinemas dos EUA Star Wars, primeiro filme de uma franquia bilionária nos cinemas que rendeu ao seu criador, George Lucas, enorme prestígio e um império em produtos licenciados. Desde o início, mais que uma visão criativa de um universo conciso e povoado por estranhos e fascinantes seres, o cineasta prezou por uma abordagem diferente da comercialização do filme - conseguindo ficar com os direitos sobre merchandising de sua obra, o que o tornou um dos homens mais poderosos da indústria do entretenimento -, decretando a morte da Velha Hollywood e seu formato vigente de negócios.
imdb.com
Star Wars: Episode I - The Phantom Menace (1999)

Capa
Sinopse:Two Jedi Knights escape a hostile blockade to find allies and come across a young boy who may bring balance to the Force, but the long dormant Sith resurface to claim their old glory.
Pontuação:6.5
Duração:136 minutos
Idioma:English
Realizador:George Lucas
Actores:Liam Neeson, Ewan McGregor, Natalie Portman, Jake Lloyd, Ian McDiarmid
  
Fonte:http://www.imdb.com/title/tt0120915
Última Actualização:Segunda Março 12, 2018 04:48

Código: Selecionar todos


   #####  #####  #########     #######                                     ####      ####  
    ###    ###   ###    ####   ###   ###                                     ###    ###   
    ###    ###   ###      ###  ##    ###     ###     # ###  ###   ##   ##     ###  ###     
    ##########   ###      ###  ### ####    ##  ### #############   ##   ##      ####      
    ##########   ###      ###  ######      #######  ##   ##   ##   ##   ##      ####      
    ###    ###   ###      ##   ##   ###   ###       ##   ##   ##   ##   ##    ###  ###    
    ###    ###   ###    ###    ###   ###   #######  ##   ##   ##   ##  ###   ###    ###   
   #####  #####  ########      ###     ##    ####   ##   ##   ###   ### ## ####      #### 

  ----------------------------------------------------------------------------------------

                         Star Wars: Episode I - The Phantom Menace (1999)

                                                             
    General Information:                                          
    ====================
                                                        
      Release Name....: Star.Wars.Episode.I.The.Phantom.Menace.1999.Blu-ray.Remux.1080p.AVC.DTS-HD.MA.6.1-HDRemuX      
      Remux Date......: 17.09.2011 (D:M:Y) 
      IMDb link.......: http://www.imdb.com/title/tt0120915/     
      Genre...........: Action | Adventure | Sci-Fi                 
      Runtime.........: 2h:16mn                          

      Plot............: The evil Trade Federation, led by Nute Gunray is planning to take over the 
                        peaceful world of Naboo. Jedi's Qui-Gon Jinn and Obi-Wan Kenobi are sent to 
                        confront the leaders. But not everything goes to plan. The two Jedis escape,
                        and along with their new Gungan friend, Jar Jar Binks head to Naboo to warn 
                        Queen Amidala, but droids have already started to capture Naboo and the Queen
                        is not safe there. Eventually they land on Tatooine, where they become friends 
                        with a young boy known as Anakin Skywalker. Qui-Gon is curious about the boy, 
                        and sees a bright future for him. The group must now find a way of getting to 
                        Coruscant and to finally solve this trade dispute, but there is someone else 
                        hiding in the shadows. Are the sith really extinct? Is the Queen who she really 
                        says she is? and what's so special about this young boy?                            
                                                                                                                          
    Technical Specification:                        
    ========================                           
                     
      Source..........: Star.Wars.Episode.1.The.Phantom.Menace.1999.BluRay.1080p.AVC.DTS-HD.MA6.1-CHDBits  
      Source CEE Subtitles - STAR_WARS_COMPLETE_BD_BLUEBIRD
      Format..........: Matroska
      File Size.......: 34.1 GB                                 
      Resolution......: 1920x1080 pixels                             
      Video Codec.....: AVC, High@L4.1                                  
      Bit Rate........: 33.6 Mbps                            
      Aspect Ratio....: 16:9                                   
      Frame Rate......: 23.976 fps  
      ReFrames........: 4 frames 
      Audio...........: English, DTS-HD, 7 channels, Variable Kbps, 48.0 Khz, 24 bits              
      Subtitles.......: English, Bulgarian, Croatian, Czech, Italian, Romanian, Russian, Slovak, Slovenian, Turkish
      Remux...........: RedCafe                               
      Contact.........: redcafeman@yahoo.com      

  ----------------------------------------------------------------------------------------

    Media Info:                        
    =========== 

General
Unique ID                        : 194617073577485137261829330767979753989 (0x9269E28D573DD01D9EF0B87D7C503205)
Complete name                    : Star.Wars.Episode.I.The.Phantom.Menace.1999.Blu-ray.Remux.1080p.AVC.DTS-HD.MA.6.1-HDRemuX.mkv
Format                           : Matroska
Format version                   : Version 2
File size                        : 34.1 GiB
Duration                         : 2h 16mn
Overall bit rate                 : 35.8 Mbps
Encoded date                     : UTC 2011-09-17 07:53:50
Writing application              : mkvmerge v4.9.1 ('Ich will') built on Jul 11 2011 23:53:15
Writing library                  : libebml v1.2.1 + libmatroska v1.1.1

Video
ID                               : 1
Format                           : AVC
Format/Info                      : Advanced Video Codec
Format profile                   : High@L4.1
Format settings, CABAC           : Yes
Format settings, ReFrames        : 4 frames
Format settings, GOP             : M=1, N=12
Codec ID                         : V_MPEG4/ISO/AVC
Duration                         : 2h 16mn
Bit rate mode                    : Variable
Bit rate                         : 33.6 Mbps
Maximum bit rate                 : 35.6 Mbps
Width                            : 1 920 pixels
Height                           : 1 080 pixels
Display aspect ratio             : 16:9
Frame rate                       : 23.976 fps
Color space                      : YUV
Chroma subsampling               : 4:2:0
Bit depth                        : 8 bits
Scan type                        : Progressive
Bits/(Pixel*Frame)               : 0.676
Stream size                      : 32.0 GiB (94%)
Language                         : English

Audio
ID                               : 2
Format                           : DTS
Format/Info                      : Digital Theater Systems
Format profile                   : MA / Core
Codec ID                         : A_DTS
Duration                         : 2h 16mn
Bit rate mode                    : Variable
Bit rate                         : 1 510 Kbps
Channel(s)                       : 7 channels / 6 channels
Channel positions                : Front: L C R, Side: L R, Back: C, LFE / Front: L C R, Side: L R, LFE
Sampling rate                    : 48.0 KHz
Bit depth                        : 24 bits
Compression mode                 : Lossless / Lossy
Stream size                      : 1.44 GiB (4%)
Language                         : English

Text #1
ID                               : 3
Format                           : PGS
Codec ID                         : S_HDMV/PGS
Codec ID/Info                    : The same subtitle format used on BDs/HD-DVDs
Language                         : English

Text #2
ID                               : 4
Format                           : VobSub
Codec ID                         : S_VOBSUB
Codec ID/Info                    : The same subtitle format used on DVDs
Language                         : Bulgarian

Text #3
ID                               : 5
Format                           : PGS
Codec ID                         : S_HDMV/PGS
Codec ID/Info                    : The same subtitle format used on BDs/HD-DVDs
Language                         : English

Text #4
ID                               : 6
Format                           : PGS
Codec ID                         : S_HDMV/PGS
Codec ID/Info                    : The same subtitle format used on BDs/HD-DVDs
Language                         : English

Text #5
ID                               : 7
Format                           : PGS
Codec ID                         : S_HDMV/PGS
Codec ID/Info                    : The same subtitle format used on BDs/HD-DVDs
Language                         : English

Text #6
ID                               : 8
Format                           : PGS
Codec ID                         : S_HDMV/PGS
Codec ID/Info                    : The same subtitle format used on BDs/HD-DVDs
Language                         : Bulgarian

Text #7
ID                               : 9
Format                           : PGS
Codec ID                         : S_HDMV/PGS
Codec ID/Info                    : The same subtitle format used on BDs/HD-DVDs
Language                         : Croatian

Text #8
ID                               : 10
Format                           : PGS
Codec ID                         : S_HDMV/PGS
Codec ID/Info                    : The same subtitle format used on BDs/HD-DVDs
Language                         : Czech

Text #9
ID                               : 11
Format                           : PGS
Codec ID                         : S_HDMV/PGS
Codec ID/Info                    : The same subtitle format used on BDs/HD-DVDs
Language                         : Italian

Text #10
ID                               : 12
Format                           : PGS
Codec ID                         : S_HDMV/PGS
Codec ID/Info                    : The same subtitle format used on BDs/HD-DVDs
Language                         : Italian

Text #11
ID                               : 13
Format                           : PGS
Codec ID                         : S_HDMV/PGS
Codec ID/Info                    : The same subtitle format used on BDs/HD-DVDs
Language                         : Italian

Text #12
ID                               : 14
Format                           : PGS
Codec ID                         : S_HDMV/PGS
Codec ID/Info                    : The same subtitle format used on BDs/HD-DVDs
Language                         : Romanian

Text #13
ID                               : 15
Format                           : PGS
Codec ID                         : S_HDMV/PGS
Codec ID/Info                    : The same subtitle format used on BDs/HD-DVDs
Language                         : Russian

Text #14
ID                               : 16
Format                           : PGS
Codec ID                         : S_HDMV/PGS
Codec ID/Info                    : The same subtitle format used on BDs/HD-DVDs
Language                         : Russian

Text #15
ID                               : 17
Format                           : PGS
Codec ID                         : S_HDMV/PGS
Codec ID/Info                    : The same subtitle format used on BDs/HD-DVDs
Language                         : Russian

Text #16
ID                               : 18
Format                           : PGS
Codec ID                         : S_HDMV/PGS
Codec ID/Info                    : The same subtitle format used on BDs/HD-DVDs
Language                         : Slovak

Text #17
ID                               : 19
Format                           : PGS
Codec ID                         : S_HDMV/PGS
Codec ID/Info                    : The same subtitle format used on BDs/HD-DVDs
Language                         : Slovenian

Text #18
ID                               : 20
Format                           : PGS
Codec ID                         : S_HDMV/PGS
Codec ID/Info                    : The same subtitle format used on BDs/HD-DVDs
Language                         : Turkish

Menu
00:00:00.000                     : en:00:00:00.000
00:00:21.104                     : en:00:00:21.104
00:01:52.738                     : en:00:01:52.738
00:07:55.350                     : en:00:07:55.350
00:09:55.970                     : en:00:09:55.970
00:11:18.761                     : en:00:11:18.761
00:13:24.178                     : en:00:13:24.178
00:14:49.806                     : en:00:14:49.806
00:17:14.242                     : en:00:17:14.242
00:20:40.948                     : en:00:20:40.948
00:22:25.302                     : en:00:22:25.302
00:25:12.886                     : en:00:25:12.886
00:29:32.813                     : en:00:29:32.813
00:31:41.483                     : en:00:31:41.483
00:35:51.733                     : en:00:35:51.733
00:40:48.571                     : en:00:40:48.571
00:44:16.320                     : en:00:44:16.320
00:52:04.580                     : en:00:52:04.580
00:55:03.842                     : en:00:55:03.842
00:58:27.921                     : en:00:58:27.921
01:02:27.702                     : en:01:02:27.702
01:05:33.012                     : en:01:05:33.012
01:10:06.911                     : en:01:10:06.911
01:11:17.940                     : en:01:11:17.940
01:16:20.951                     : en:01:16:20.951
01:18:08.100                     : en:01:18:08.100
01:20:26.363                     : en:01:20:26.363
01:24:18.178                     : en:01:24:18.178
01:26:44.783                     : en:01:26:44.783
01:29:54.723                     : en:01:29:54.723
01:31:02.415                     : en:01:31:02.415
01:33:08.541                     : en:01:33:08.541
01:37:21.419                     : en:01:37:21.419
01:39:06.315                     : en:01:39:06.315
01:42:33.731                     : en:01:42:33.731
01:44:41.567                     : en:01:44:41.567
01:46:19.248                     : en:01:46:19.248
01:48:07.731                     : en:01:48:07.731
01:50:24.952                     : en:01:50:24.952
01:56:47.667                     : en:01:56:47.667
01:59:13.063                     : en:01:59:13.063
02:00:31.391                     : en:02:00:31.391
02:01:21.316                     : en:02:01:21.316
02:02:23.378                     : en:02:02:23.378
02:03:56.971                     : en:02:03:56.971
02:05:15.133                     : en:02:05:15.133
02:06:25.995                     : en:02:06:25.995
02:07:23.177                     : en:02:07:23.177
02:08:28.993                     : en:02:08:28.993
02:09:53.536                     : en:02:09:53.536

  ----------------------------------------------------------------------------------------

                         Star Wars: Episode II - Attack of the Clones (2002)

                                                             
    General Information:                                          
    ====================
                                                        
      Release Name....: Star.Wars.Episode.II.Attack.of.the.Clones.2002.Blu-ray.Remux.1080p.AVC.DTS-HD.MA.6.1-HDRemuX  
      Remux Date......: 17.09.2011 (D:M:Y) 
      IMDb link.......: http://www.imdb.com/title/tt0121765/ 
      Genre...........: Action | Adventure | Fantasy | Sci-Fi                  
      Runtime.........: 2h:22mn                          

      Plot............: Ten years after the 'Phantom Menace' threatened the planet Naboo, Padme Amidala is 
                        now a Senator representing her homeworld. A faction of political separatists, led by
                        Count Dooku, attempts to assassinate her. There aren't enough Jedi to defend the 
                        Republic against the threat, so Chancellor Palpatine enlists the aid of Jango Fett, 
                        who promises that his army of clones will handle the situation. Meanwhile, Obi-Wan 
                        Kenobi continues to train the young Jedi Anakin Skywalker, who fears that the Jedi 
                        code will forbid his growing romance with Amidala.                            
                                                                                                                          
    Technical Specification:                        
    ========================                           
                     
      Source..........: Star.Wars.Episode.2.Attack.of.the.Clones.2002.BluRay.1080p.AVC.DTS-HD.MA6.1-CHDBits  
      Source CEE Subtitles - STAR_WARS_COMPLETE_BD_BLUEBIRD
      Format..........: Matroska
      File Size.......: 33.8 GB                                 
      Resolution......: 1920x1080 pixels                             
      Video Codec.....: AVC, High@L4.1                                  
      Bit Rate........: 31.8 Mbps                            
      Aspect Ratio....: 16:9                                   
      Frame Rate......: 23.976 fps  
      ReFrames........: 4 frames
      Audio...........: English, DTS-HD, 7 channels, Variable Kbps, 48.0 Khz, 24 bits              
      Subtitles.......: English, Bulgarian, Croatian, Czech, Estonian, Italian, Latvian, Lithuanian, Romanian, 
                        Russian, Slovak, Slovenian, Turkish
      Remux...........: RedCafe                               
      Contact.........: redcafeman@yahoo.com    

  ----------------------------------------------------------------------------------------

    Media Info:                        
    =========== 

General
Unique ID                        : 205077161564579435614668997470425320226 (0x9A486CB4FDE90A78A945A18AEB0E0B22)
Complete name                    : Star.Wars.Episode.II.Attack.of.the.Clones.2002.Blu-ray.Remux.1080p.AVC.DTS-HD.MA.6.1-HDRemuX.mkv
Format                           : Matroska
Format version                   : Version 2
File size                        : 33.8 GiB
Duration                         : 2h 22mn
Overall bit rate                 : 34.0 Mbps
Encoded date                     : UTC 2011-09-17 09:17:04
Writing application              : mkvmerge v4.9.1 ('Ich will') built on Jul 11 2011 23:53:15
Writing library                  : libebml v1.2.1 + libmatroska v1.1.1

Video
ID                               : 1
Format                           : AVC
Format/Info                      : Advanced Video Codec
Format profile                   : High@L4.1
Format settings, CABAC           : Yes
Format settings, ReFrames        : 4 frames
Codec ID                         : V_MPEG4/ISO/AVC
Duration                         : 2h 22mn
Bit rate mode                    : Variable
Bit rate                         : 31.8 Mbps
Maximum bit rate                 : 35.7 Mbps
Width                            : 1 920 pixels
Height                           : 1 080 pixels
Display aspect ratio             : 16:9
Frame rate                       : 23.976 fps
Color space                      : YUV
Chroma subsampling               : 4:2:0
Bit depth                        : 8 bits
Scan type                        : Progressive
Bits/(Pixel*Frame)               : 0.639
Stream size                      : 31.6 GiB (94%)
Language                         : English

Audio
ID                               : 2
Format                           : DTS
Format/Info                      : Digital Theater Systems
Format profile                   : MA / Core
Codec ID                         : A_DTS
Duration                         : 2h 22mn
Bit rate mode                    : Variable
Bit rate                         : 1 510 Kbps
Channel(s)                       : 7 channels / 6 channels
Channel positions                : Front: L C R, Side: L R, Back: C, LFE / Front: L C R, Side: L R, LFE
Sampling rate                    : 48.0 KHz
Bit depth                        : 24 bits
Compression mode                 : Lossless / Lossy
Stream size                      : 1.50 GiB (4%)
Language                         : English

Text #1
ID                               : 3
Format                           : PGS
Codec ID                         : S_HDMV/PGS
Codec ID/Info                    : The same subtitle format used on BDs/HD-DVDs
Language                         : English

Text #2
ID                               : 4
Format                           : VobSub
Codec ID                         : S_VOBSUB
Codec ID/Info                    : The same subtitle format used on DVDs
Language                         : Bulgarian

Text #3
ID                               : 5
Format                           : PGS
Codec ID                         : S_HDMV/PGS
Codec ID/Info                    : The same subtitle format used on BDs/HD-DVDs
Language                         : English

Text #4
ID                               : 6
Format                           : PGS
Codec ID                         : S_HDMV/PGS
Codec ID/Info                    : The same subtitle format used on BDs/HD-DVDs
Language                         : English

Text #5
ID                               : 7
Format                           : PGS
Codec ID                         : S_HDMV/PGS
Codec ID/Info                    : The same subtitle format used on BDs/HD-DVDs
Language                         : English

Text #6
ID                               : 8
Format                           : PGS
Codec ID                         : S_HDMV/PGS
Codec ID/Info                    : The same subtitle format used on BDs/HD-DVDs
Language                         : Bulgarian

Text #7
ID                               : 9
Format                           : PGS
Codec ID                         : S_HDMV/PGS
Codec ID/Info                    : The same subtitle format used on BDs/HD-DVDs
Language                         : Croatian

Text #8
ID                               : 10
Format                           : PGS
Codec ID                         : S_HDMV/PGS
Codec ID/Info                    : The same subtitle format used on BDs/HD-DVDs
Language                         : Czech

Text #9
ID                               : 11
Format                           : PGS
Codec ID                         : S_HDMV/PGS
Codec ID/Info                    : The same subtitle format used on BDs/HD-DVDs
Language                         : Estonian

Text #10
ID                               : 12
Format                           : PGS
Codec ID                         : S_HDMV/PGS
Codec ID/Info                    : The same subtitle format used on BDs/HD-DVDs
Language                         : Italian

Text #11
ID                               : 13
Format                           : PGS
Codec ID                         : S_HDMV/PGS
Codec ID/Info                    : The same subtitle format used on BDs/HD-DVDs
Language                         : Italian

Text #12
ID                               : 14
Format                           : PGS
Codec ID                         : S_HDMV/PGS
Codec ID/Info                    : The same subtitle format used on BDs/HD-DVDs
Language                         : Italian

Text #13
ID                               : 15
Format                           : PGS
Codec ID                         : S_HDMV/PGS
Codec ID/Info                    : The same subtitle format used on BDs/HD-DVDs
Language                         : Latvian

Text #14
ID                               : 16
Format                           : PGS
Codec ID                         : S_HDMV/PGS
Codec ID/Info                    : The same subtitle format used on BDs/HD-DVDs
Language                         : Lithuanian

Text #15
ID                               : 17
Format                           : PGS
Codec ID                         : S_HDMV/PGS
Codec ID/Info                    : The same subtitle format used on BDs/HD-DVDs
Language                         : Romanian

Text #16
ID                               : 18
Format                           : PGS
Codec ID                         : S_HDMV/PGS
Codec ID/Info                    : The same subtitle format used on BDs/HD-DVDs
Language                         : Russian

Text #17
ID                               : 19
Format                           : PGS
Codec ID                         : S_HDMV/PGS
Codec ID/Info                    : The same subtitle format used on BDs/HD-DVDs
Language                         : Russian

Text #18
ID                               : 20
Format                           : PGS
Codec ID                         : S_HDMV/PGS
Codec ID/Info                    : The same subtitle format used on BDs/HD-DVDs
Language                         : Russian

Text #19
ID                               : 21
Format                           : PGS
Codec ID                         : S_HDMV/PGS
Codec ID/Info                    : The same subtitle format used on BDs/HD-DVDs
Language                         : Slovak

Text #20
ID                               : 22
Format                           : PGS
Codec ID                         : S_HDMV/PGS
Codec ID/Info                    : The same subtitle format used on BDs/HD-DVDs
Language                         : Slovenian

Text #21
ID                               : 23
Format                           : PGS
Codec ID                         : S_HDMV/PGS
Codec ID/Info                    : The same subtitle format used on BDs/HD-DVDs
Language                         : Turkish

Menu
00:00:00.000                     : en:00:00:00.000
00:00:23.440                     : en:00:00:23.440
00:01:50.527                     : en:00:01:50.527
00:04:22.095                     : en:00:04:22.095
00:07:00.003                     : en:00:07:00.003
00:10:28.962                     : en:00:10:28.962
00:14:19.901                     : en:00:14:19.901
00:21:35.294                     : en:00:21:35.294
00:24:48.237                     : en:00:24:48.237
00:29:45.867                     : en:00:29:45.867
00:31:33.475                     : en:00:31:33.475
00:33:48.526                     : en:00:33:48.526
00:34:50.505                     : en:00:34:50.505
00:36:05.121                     : en:00:36:05.121
00:38:25.929                     : en:00:38:25.929
00:39:25.363                     : en:00:39:25.363
00:40:56.371                     : en:00:40:56.371
00:42:12.780                     : en:00:42:12.780
00:44:02.014                     : en:00:44:02.014
00:45:50.414                     : en:00:45:50.414
00:47:50.076                     : en:00:47:50.076
00:50:21.018                     : en:00:50:21.018
00:53:01.428                     : en:00:53:01.428
00:56:44.818                     : en:00:56:44.818
00:58:56.700                     : en:00:58:56.700
01:00:46.059                     : en:01:00:46.059
01:03:41.192                     : en:01:03:41.192
01:06:24.355                     : en:01:06:24.355
01:11:18.774                     : en:01:11:18.774
01:14:01.354                     : en:01:14:01.354
01:15:23.477                     : en:01:15:23.477
01:17:48.873                     : en:01:17:48.873
01:21:40.354                     : en:01:21:40.354
01:23:46.897                     : en:01:23:46.897
01:28:10.160                     : en:01:28:10.160
01:30:52.906                     : en:01:30:52.906
01:33:38.488                     : en:01:33:38.488
01:35:27.847                     : en:01:35:27.847
01:42:44.867                     : en:01:42:44.867
01:45:14.016                     : en:01:45:14.016
01:49:53.629                     : en:01:49:53.629
01:56:22.475                     : en:01:56:22.475
01:57:47.602                     : en:01:57:47.602
02:00:29.180                     : en:02:00:29.180
02:04:48.981                     : en:02:04:48.981
02:07:41.946                     : en:02:07:41.946
02:11:23.667                     : en:02:11:23.667
02:12:54.884                     : en:02:12:54.884
02:14:49.248                     : en:02:14:49.248
02:15:54.938                     : en:02:15:54.938

  ----------------------------------------------------------------------------------------

                         Star Wars: Episode III - Revenge of the Sith (2005)

                                                             
    General Information:                                          
    ====================
                                                        
      Release Name....: Star.Wars.Episode.III.Revenge.of.the.Sith.2005.Blu-ray.Remux.1080p.AVC.DTS-HD.MA.6.1-HDRemuX      
      Remux Date......: 17.09.2011 (D:M:Y) 
      IMDb link.......: http://www.imdb.com/title/tt0121766/ 
      Genre...........: Action | Adventure | Fantasy | Sci-Fi                
      Runtime.........: 2h:20mn                          

      Plot............: It is three years after the Clone Wars. The leader of the droid army, General Grievous,
                        has captured Chancellor Palpatine on board his ship, the Invisible Hand. Jedi Master 
                        Obi-Wan Kenobi and Jedi Knight Anakin Skywalker must fly through Coruscant safely, 
                        and enter the Invisible Hand so that they can rescue the captive Chancellor. Just when 
                        Palpatine is about to be released, Count Dooku shows up. Obi-Wan and Anakin both battle
                        it out with him, but Obi-Wan ends up unconscious. Anakin slices off his head and kills 
                        him. Anakin carries Obi-Wan, and Palpatine follows him. They meet General Grievous face 
                        to face, and Anakin tries to fly the last half of the ship so that they can safely land 
                        on Coruscant. Later, Palpatine starts acting strange, constantly manipulating Anakin into
                        believing that the Jedi Council is against him. Eventually, it is found out that he is the 
                        Dark Lord of the Sith. Jedi Master Mace Windu fights him...                           
                                                                                                                          
    Technical Specification:                        
    ========================                           
                     
      Source..........: Star.Wars.Episode.3.Revenge.of.the.Sith.2005.BluRay.1080p.AVC.DTS-HD.MA6.1-CHDBits  
      Source CEE Subtitles - STAR_WARS_COMPLETE_BD_BLUEBIRD
      Format..........: Matroska
      File Size.......: 34.1 GB                                 
      Resolution......: 1920x1080 pixels                             
      Video Codec.....: AVC, High@L4.1                                  
      Bit Rate........: 32.6 Mbps                            
      Aspect Ratio....: 16:9                                   
      Frame Rate......: 23.976 fps  
      ReFrames........: 4 frames
      Audio...........: English, DTS-HD, 7 channels, Variable Kbps, 48.0 Khz, 24 bits              
      Subtitles.......: English, Bulgarian, Croatian, Czech, Estonian, Italian, Latvian, Lithuanian, 
                        Romanian, Russian, Slovenian, Turkish
      Remux...........: RedCafe                               
      Contact.........: redcafeman@yahoo.com 

  ----------------------------------------------------------------------------------------

    Media Info:                        
    =========== 

General
Unique ID                        : 174741059684040636279966036069819897015 (0x8375E7685899E6EF89C6FFBC395054B7)
Complete name                    : Star.Wars.Episode.III.Revenge.of.the.Sith.2005.Blu-ray.Remux.1080p.AVC.DTS-HD.MA.6.1-HDRemuX.mkv
Format                           : Matroska
Format version                   : Version 2
File size                        : 34.1 GiB
Duration                         : 2h 20mn
Overall bit rate                 : 34.8 Mbps
Encoded date                     : UTC 2011-09-17 10:10:24
Writing application              : mkvmerge v4.9.1 ('Ich will') built on Jul 11 2011 23:53:15
Writing library                  : libebml v1.2.1 + libmatroska v1.1.1

Video
ID                               : 1
Format                           : AVC
Format/Info                      : Advanced Video Codec
Format profile                   : High@L4.1
Format settings, CABAC           : Yes
Format settings, ReFrames        : 4 frames
Codec ID                         : V_MPEG4/ISO/AVC
Duration                         : 2h 20mn
Bit rate mode                    : Variable
Bit rate                         : 32.6 Mbps
Maximum bit rate                 : 35.6 Mbps
Width                            : 1 920 pixels
Height                           : 1 080 pixels
Display aspect ratio             : 16:9
Frame rate                       : 23.976 fps
Color space                      : YUV
Chroma subsampling               : 4:2:0
Bit depth                        : 8 bits
Scan type                        : Progressive
Bits/(Pixel*Frame)               : 0.656
Stream size                      : 31.9 GiB (94%)
Language                         : English

Audio
ID                               : 2
Format                           : DTS
Format/Info                      : Digital Theater Systems
Format profile                   : MA / Core
Codec ID                         : A_DTS
Duration                         : 2h 20mn
Bit rate mode                    : Variable
Bit rate                         : 1 510 Kbps
Channel(s)                       : 7 channels / 6 channels
Channel positions                : Front: L C R, Side: L R, Back: C, LFE / Front: L C R, Side: L R, LFE
Sampling rate                    : 48.0 KHz
Bit depth                        : 24 bits
Compression mode                 : Lossless / Lossy
Stream size                      : 1.48 GiB (4%)
Language                         : English

Text #1
ID                               : 3
Format                           : PGS
Codec ID                         : S_HDMV/PGS
Codec ID/Info                    : The same subtitle format used on BDs/HD-DVDs
Language                         : English

Text #2
ID                               : 4
Format                           : VobSub
Codec ID                         : S_VOBSUB
Codec ID/Info                    : The same subtitle format used on DVDs
Language                         : Bulgarian

Text #3
ID                               : 5
Format                           : PGS
Codec ID                         : S_HDMV/PGS
Codec ID/Info                    : The same subtitle format used on BDs/HD-DVDs
Language                         : English

Text #4
ID                               : 6
Format                           : PGS
Codec ID                         : S_HDMV/PGS
Codec ID/Info                    : The same subtitle format used on BDs/HD-DVDs
Language                         : English

Text #5
ID                               : 7
Format                           : PGS
Codec ID                         : S_HDMV/PGS
Codec ID/Info                    : The same subtitle format used on BDs/HD-DVDs
Language                         : Bulgarian

Text #6
ID                               : 8
Format                           : PGS
Codec ID                         : S_HDMV/PGS
Codec ID/Info                    : The same subtitle format used on BDs/HD-DVDs
Language                         : Croatian

Text #7
ID                               : 9
Format                           : PGS
Codec ID                         : S_HDMV/PGS
Codec ID/Info                    : The same subtitle format used on BDs/HD-DVDs
Language                         : Czech

Text #8
ID                               : 10
Format                           : PGS
Codec ID                         : S_HDMV/PGS
Codec ID/Info                    : The same subtitle format used on BDs/HD-DVDs
Language                         : Estonian

Text #9
ID                               : 11
Format                           : PGS
Codec ID                         : S_HDMV/PGS
Codec ID/Info                    : The same subtitle format used on BDs/HD-DVDs
Language                         : Italian

Text #10
ID                               : 12
Format                           : PGS
Codec ID                         : S_HDMV/PGS
Codec ID/Info                    : The same subtitle format used on BDs/HD-DVDs
Language                         : Italian

Text #11
ID                               : 13
Format                           : PGS
Codec ID                         : S_HDMV/PGS
Codec ID/Info                    : The same subtitle format used on BDs/HD-DVDs
Language                         : Italian

Text #12
ID                               : 14
Format                           : PGS
Codec ID                         : S_HDMV/PGS
Codec ID/Info                    : The same subtitle format used on BDs/HD-DVDs
Language                         : Latvian

Text #13
ID                               : 15
Format                           : PGS
Codec ID                         : S_HDMV/PGS
Codec ID/Info                    : The same subtitle format used on BDs/HD-DVDs
Language                         : Lithuanian

Text #14
ID                               : 16
Format                           : PGS
Codec ID                         : S_HDMV/PGS
Codec ID/Info                    : The same subtitle format used on BDs/HD-DVDs
Language                         : Romanian

Text #15
ID                               : 17
Format                           : PGS
Codec ID                         : S_HDMV/PGS
Codec ID/Info                    : The same subtitle format used on BDs/HD-DVDs
Language                         : Russian

Text #16
ID                               : 18
Format                           : PGS
Codec ID                         : S_HDMV/PGS
Codec ID/Info                    : The same subtitle format used on BDs/HD-DVDs
Language                         : Russian

Text #17
ID                               : 19
Format                           : PGS
Codec ID                         : S_HDMV/PGS
Codec ID/Info                    : The same subtitle format used on BDs/HD-DVDs
Language                         : Russian

Text #18
ID                               : 20
Format                           : PGS
Codec ID                         : S_HDMV/PGS
Codec ID/Info                    : The same subtitle format used on BDs/HD-DVDs
Language                         : Slovenian

Text #19
ID                               : 21
Format                           : PGS
Codec ID                         : S_HDMV/PGS
Codec ID/Info                    : The same subtitle format used on BDs/HD-DVDs
Language                         : Turkish

Menu
00:00:00.000                     : en:00:00:00.000
00:00:23.523                     : en:00:00:23.523
00:01:50.068                     : en:00:01:50.068
00:08:28.133                     : en:00:08:28.133
00:11:23.349                     : en:00:11:23.349
00:18:33.738                     : en:00:18:33.738
00:23:40.461                     : en:00:23:40.461
00:27:37.698                     : en:00:27:37.698
00:29:12.960                     : en:00:29:12.960
00:33:18.914                     : en:00:33:18.914
00:35:45.435                     : en:00:35:45.435
00:36:47.997                     : en:00:36:47.997
00:38:21.466                     : en:00:38:21.466
00:40:17.457                     : en:00:40:17.457
00:41:18.601                     : en:00:41:18.601
00:42:41.058                     : en:00:42:41.058
00:48:01.587                     : en:00:48:01.587
00:50:20.517                     : en:00:50:20.517
00:52:24.933                     : en:00:52:24.933
00:53:58.026                     : en:00:53:58.026
00:56:26.466                     : en:00:56:26.466
01:00:56.278                     : en:01:00:56.278
01:01:56.546                     : en:01:01:56.546
01:05:26.047                     : en:01:05:26.047
01:07:40.598                     : en:01:07:40.598
01:09:06.976                     : en:01:09:06.976
01:10:52.999                     : en:01:10:52.999
01:15:19.223                     : en:01:15:19.223
01:19:15.250                     : en:01:19:15.250
01:20:37.458                     : en:01:20:37.458
01:24:20.597                     : en:01:24:20.597
01:27:56.521                     : en:01:27:56.521
01:29:57.392                     : en:01:29:57.392
01:33:40.406                     : en:01:33:40.406
01:36:39.460                     : en:01:36:39.460
01:38:35.535                     : en:01:38:35.535
01:41:24.370                     : en:01:41:24.370
01:42:57.004                     : en:01:42:57.004
01:48:18.784                     : en:01:48:18.784
01:50:59.444                     : en:01:50:59.444
01:52:44.007                     : en:01:52:44.007
01:54:22.856                     : en:01:54:22.856
01:56:54.925                     : en:01:56:54.925
02:02:20.875                     : en:02:02:20.875
02:03:32.864                     : en:02:03:32.864
02:05:19.637                     : en:02:05:19.637
02:07:37.108                     : en:02:07:37.108
02:08:57.063                     : en:02:08:57.063
02:12:04.959                     : en:02:12:04.959
02:13:47.353                     : en:02:13:47.353

  ----------------------------------------------------------------------------------------

                      Star Wars: Episode IV - A New Hope (1977)

                                                             
    General Information:                                          
    ====================
                                                        
      Release Name....: Star.Wars.Episode.IV.A.New.Hope.1977.Blu-ray.Remux.1080p.AVC.DTS-HD.MA.6.1-HDRemuX   
      Remux Date......: 17.09.2011 (D:M:Y) 
      IMDb link.......: http://www.imdb.com/title/tt0076759/
      Genre...........: Action | Adventure | Family | Fantasy | Sci-Fi
      Runtime.........: 2h:4mn                       

      Plot............: Part IV in a George Lucas epic, Star Wars: A New Hope opens with a rebel ship being boarded 
                        by the tyrannical Darth Vader. The plot then follows the life of a simple farmboy, Luke 
                        Skywalker, as he and his newly met allies (Han Solo, Chewbacca, Ben Kenobi, C-3PO, R2-D2)
                        attempt to rescue a rebel leader, Princess Leia, from the clutches of the Empire. The conclusion
                        is culminated as the Rebels, including Skywalker and flying ace Wedge Antilles make an attack 
                        on the Empires most powerful and ominous weapon, the Death Star.                    
                                                                                                                          
    Technical Specification:                        
    ========================                           
                     
      Source..........: Star.Wars.Episode.4.A.New.Hope.1977.BluRay.1080p.AVC.DTS-HD.MA6.1-CHDBits 
      Source CEE Subtitles - STAR_WARS_COMPLETE_BD_BLUEBIRD
      Format..........: Matroska
      File Size.......: 33.2 GB                                 
      Resolution......: 1920x1080 pixels                             
      Video Codec.....: AVC, High@L4.1                                  
      Bit Rate........: 35.8 Mbps                            
      Aspect Ratio....: 16:9                                   
      Frame Rate......: 23.976 fps  
      ReFrames........: 4 frames                             
      Audio...........: English, DTS-HD, 7 channels, Variable Kbps, 48.0 Khz, 24 bits
      Subtitles.......: English, Bulgarian, Croatian, Czech, Italian, Romanian, Russian, Slovenian, Turkish                                    
      Remux...........: RedCafe                               
      Contact.........: redcafeman@yahoo.com 

  ----------------------------------------------------------------------------------------

    Media Info:                        
    =========== 

General
Unique ID                        : 175229823647894603977551866349003660581 (0x83D40954DFA079148C02FBF6CD5EDD25)
Complete name                    : Star.Wars.Episode.IV.A.New.Hope.1977.Blu-ray.Remux.1080p.AVC.DTS-HD.MA.6.1-HDRemuX.mkv
Format                           : Matroska
Format version                   : Version 2
File size                        : 33.2 GiB
Duration                         : 2h 4mn
Overall bit rate                 : 38.1 Mbps
Encoded date                     : UTC 2011-09-17 11:01:58
Writing application              : mkvmerge v4.9.1 ('Ich will') built on Jul 11 2011 23:53:15
Writing library                  : libebml v1.2.1 + libmatroska v1.1.1

Video
ID                               : 1
Format                           : AVC
Format/Info                      : Advanced Video Codec
Format profile                   : High@L4.1
Format settings, CABAC           : Yes
Format settings, ReFrames        : 4 frames
Codec ID                         : V_MPEG4/ISO/AVC
Duration                         : 2h 4mn
Bit rate mode                    : Variable
Bit rate                         : 35.8 Mbps
Maximum bit rate                 : 36.8 Mbps
Width                            : 1 920 pixels
Height                           : 1 080 pixels
Display aspect ratio             : 16:9
Frame rate                       : 23.976 fps
Color space                      : YUV
Chroma subsampling               : 4:2:0
Bit depth                        : 8 bits
Scan type                        : Progressive
Bits/(Pixel*Frame)               : 0.721
Stream size                      : 31.2 GiB (94%)
Language                         : English

Audio
ID                               : 2
Format                           : DTS
Format/Info                      : Digital Theater Systems
Format profile                   : MA / Core
Codec ID                         : A_DTS
Duration                         : 2h 4mn
Bit rate mode                    : Variable
Bit rate                         : 1 510 Kbps
Channel(s)                       : 7 channels / 6 channels
Channel positions                : Front: L C R, Side: L R, Back: C, LFE / Front: L C R, Side: L R, LFE
Sampling rate                    : 48.0 KHz
Bit depth                        : 24 bits
Compression mode                 : Lossless / Lossy
Stream size                      : 1.32 GiB (4%)
Language                         : English

Text #1
ID                               : 3
Format                           : PGS
Codec ID                         : S_HDMV/PGS
Codec ID/Info                    : The same subtitle format used on BDs/HD-DVDs
Language                         : English

Text #2
ID                               : 4
Format                           : VobSub
Codec ID                         : S_VOBSUB
Codec ID/Info                    : The same subtitle format used on DVDs
Language                         : Bulgarian

Text #3
ID                               : 5
Format                           : PGS
Codec ID                         : S_HDMV/PGS
Codec ID/Info                    : The same subtitle format used on BDs/HD-DVDs
Language                         : English

Text #4
ID                               : 6
Format                           : PGS
Codec ID                         : S_HDMV/PGS
Codec ID/Info                    : The same subtitle format used on BDs/HD-DVDs
Language                         : English

Text #5
ID                               : 7
Format                           : PGS
Codec ID                         : S_HDMV/PGS
Codec ID/Info                    : The same subtitle format used on BDs/HD-DVDs
Language                         : English

Text #6
ID                               : 8
Format                           : PGS
Codec ID                         : S_HDMV/PGS
Codec ID/Info                    : The same subtitle format used on BDs/HD-DVDs
Language                         : Bulgarian

Text #7
ID                               : 9
Format                           : PGS
Codec ID                         : S_HDMV/PGS
Codec ID/Info                    : The same subtitle format used on BDs/HD-DVDs
Language                         : Croatian

Text #8
ID                               : 10
Format                           : PGS
Codec ID                         : S_HDMV/PGS
Codec ID/Info                    : The same subtitle format used on BDs/HD-DVDs
Language                         : Czech

Text #9
ID                               : 11
Format                           : PGS
Codec ID                         : S_HDMV/PGS
Codec ID/Info                    : The same subtitle format used on BDs/HD-DVDs
Language                         : Italian

Text #10
ID                               : 12
Format                           : PGS
Codec ID                         : S_HDMV/PGS
Codec ID/Info                    : The same subtitle format used on BDs/HD-DVDs
Language                         : Italian

Text #11
ID                               : 13
Format                           : PGS
Codec ID                         : S_HDMV/PGS
Codec ID/Info                    : The same subtitle format used on BDs/HD-DVDs
Language                         : Italian

Text #12
ID                               : 14
Format                           : PGS
Codec ID                         : S_HDMV/PGS
Codec ID/Info                    : The same subtitle format used on BDs/HD-DVDs
Language                         : Romanian

Text #13
ID                               : 15
Format                           : PGS
Codec ID                         : S_HDMV/PGS
Codec ID/Info                    : The same subtitle format used on BDs/HD-DVDs
Language                         : Russian

Text #14
ID                               : 16
Format                           : PGS
Codec ID                         : S_HDMV/PGS
Codec ID/Info                    : The same subtitle format used on BDs/HD-DVDs
Language                         : Russian

Text #15
ID                               : 17
Format                           : PGS
Codec ID                         : S_HDMV/PGS
Codec ID/Info                    : The same subtitle format used on BDs/HD-DVDs
Language                         : Russian

Text #16
ID                               : 18
Format                           : PGS
Codec ID                         : S_HDMV/PGS
Codec ID/Info                    : The same subtitle format used on BDs/HD-DVDs
Language                         : Slovenian

Text #17
ID                               : 19
Format                           : PGS
Codec ID                         : S_HDMV/PGS
Codec ID/Info                    : The same subtitle format used on BDs/HD-DVDs
Language                         : Turkish

Menu
00:00:00.000                     : en:00:00:00.000
00:00:21.021                     : en:00:00:21.021
00:01:53.405                     : en:00:01:53.405
00:04:52.792                     : en:00:04:52.792
00:07:28.281                     : en:00:07:28.281
00:08:54.868                     : en:00:08:54.868
00:11:21.389                     : en:00:11:21.389
00:15:40.231                     : en:00:15:40.231
00:19:40.179                     : en:00:19:40.179
00:23:33.203                     : en:00:23:33.203
00:25:32.614                     : en:00:25:32.614
00:27:45.497                     : en:00:27:45.497
00:29:12.709                     : en:00:29:12.709
00:32:34.077                     : en:00:32:34.077
00:34:53.008                     : en:00:34:53.008
00:36:54.212                     : en:00:36:54.212
00:39:05.635                     : en:00:39:05.635
00:41:42.291                     : en:00:41:42.291
00:42:31.549                     : en:00:42:31.549
00:44:51.731                     : en:00:44:51.731
00:47:52.620                     : en:00:47:52.620
00:49:57.995                     : en:00:49:57.995
00:51:13.696                     : en:00:51:13.696
00:52:40.741                     : en:00:52:40.741
00:54:12.332                     : en:00:54:12.332
00:56:59.916                     : en:00:56:59.916
00:59:14.176                     : en:00:59:14.176
01:03:10.829                     : en:01:03:10.829
01:06:16.472                     : en:01:06:16.472
01:08:21.973                     : en:01:08:21.973
01:12:32.390                     : en:01:12:32.390
01:14:12.657                     : en:01:14:12.657
01:17:13.712                     : en:01:17:13.712
01:19:09.328                     : en:01:19:09.328
01:21:29.384                     : en:01:21:29.384
01:25:00.220                     : en:01:25:00.220
01:27:02.092                     : en:01:27:02.092
01:29:56.182                     : en:01:29:56.182
01:33:48.456                     : en:01:33:48.456
01:36:39.877                     : en:01:36:39.877
01:38:06.756                     : en:01:38:06.756
01:39:37.513                     : en:01:39:37.513
01:41:24.996                     : en:01:41:24.996
01:42:37.401                     : en:01:42:37.401
01:45:02.630                     : en:01:45:02.630
01:49:42.785                     : en:01:49:42.785
01:55:18.912                     : en:01:55:18.912
01:57:47.394                     : en:01:57:47.394
01:58:28.518                     : en:01:58:28.518
02:00:14.499                     : en:02:00:14.499

  ----------------------------------------------------------------------------------------

                      Star Wars: Episode V - The Empire Strikes Back (1980)

                                                             
    General Information:                                          
    ====================
                                                        
      Release Name....: Star.Wars.Episode.V.The.Empire.Strikes.Back.1980.Blu-ray.Remux.1080p.AVC.DTS-HD.MA.6.1-HDRemuX   
      Remux Date......: 17.09.2011 (D:M:Y) 
      IMDb link.......: http://www.imdb.com/title/tt0076759/
      Genre...........: Action | Adventure | Family | Fantasy | Sci-Fi
      Runtime.........: 2h:7mn                       

      Plot............: Fleeing the evil Galactic Empire, the rebels abandon their new base on Hoth. Princess Leia, 
                        Han Solo and the droid C-3P0 escape in the damaged Millenium Falcon, but are later captured by 
                        Lord Darth Vader on Bespin. Skywalker and the droid R2-D2, meanwhile, follows Ben Kenobi's 
                        posthumous command and receives Jedi training by Yoda on Dagobah. Will Skywalker manage 
                        to rescue his friends from the dark lord?                    
                                                                                                                          
    Technical Specification:                        
    ========================                           
                     
      Source..........: STAR_WARS_COMPLETE_BD_BLUEBIRD
      Source CEE Subtitles - STAR_WARS_COMPLETE_BD_BLUEBIRD
      Format..........: Matroska
      File Size.......: 33.4 GB                                 
      Resolution......: 1920x1080 pixels                             
      Video Codec.....: AVC, High@L4.1                                  
      Bit Rate........: 35.3 Mbps                            
      Aspect Ratio....: 16:9                                   
      Frame Rate......: 23.976 fps  
      ReFrames........: 4 frames                             
      Audio...........: English, DTS-HD, 7 channels, Variable Kbps, 48.0 Khz, 24 bits
      Subtitles.......: English, Bulgarian, Croatian, Czech, Italian, Romanian, Russian, Slovenian, Turkish                                   
      Remux...........: RedCafe                               
      Contact.........: redcafeman@yahoo.com 

  ----------------------------------------------------------------------------------------

    Media Info:                        
    =========== 

General
Unique ID                        : 204372829772296545416848574784114670613 (0x99C0C677F2B3E86EB50BB9BB29A23C15)
Complete name                    : Star.Wars.Episode.V.The.Empire.Strikes.Back.1980.Blu-ray.Remux.1080p.AVC.DTS-HD.MA.6.1-HDRemuX.mkv
Format                           : Matroska
Format version                   : Version 2
File size                        : 33.4 GiB
Duration                         : 2h 7mn
Overall bit rate                 : 37.6 Mbps
Encoded date                     : UTC 2011-09-17 11:52:30
Writing application              : mkvmerge v4.9.1 ('Ich will') built on Jul 11 2011 23:53:15
Writing library                  : libebml v1.2.1 + libmatroska v1.1.1

Video
ID                               : 1
Format                           : AVC
Format/Info                      : Advanced Video Codec
Format profile                   : High@L4.1
Format settings, CABAC           : Yes
Format settings, ReFrames        : 4 frames
Codec ID                         : V_MPEG4/ISO/AVC
Duration                         : 2h 7mn
Bit rate mode                    : Variable
Bit rate                         : 35.3 Mbps
Maximum bit rate                 : 36.6 Mbps
Width                            : 1 920 pixels
Height                           : 1 080 pixels
Display aspect ratio             : 16:9
Frame rate                       : 23.976 fps
Color space                      : YUV
Chroma subsampling               : 4:2:0
Bit depth                        : 8 bits
Scan type                        : Progressive
Bits/(Pixel*Frame)               : 0.710
Stream size                      : 31.4 GiB (94%)
Language                         : English
Color primaries                  : BT.709-5, BT.1361, IEC 61966-2-4, SMPTE RP177
Transfer characteristics         : BT.709-5, BT.1361
Matrix coefficients              : BT.709-5, BT.1361, IEC 61966-2-4 709, SMPTE RP177

Audio
ID                               : 2
Format                           : DTS
Format/Info                      : Digital Theater Systems
Format profile                   : MA / Core
Codec ID                         : A_DTS
Duration                         : 2h 7mn
Bit rate mode                    : Variable
Bit rate                         : 1 510 Kbps
Channel(s)                       : 7 channels / 6 channels
Channel positions                : Front: L C R, Side: L R, Back: C, LFE / Front: L C R, Side: L R, LFE
Sampling rate                    : 48.0 KHz
Bit depth                        : 24 bits
Compression mode                 : Lossless / Lossy
Stream size                      : 1.34 GiB (4%)
Language                         : English

Text #1
ID                               : 3
Format                           : PGS
Codec ID                         : S_HDMV/PGS
Codec ID/Info                    : The same subtitle format used on BDs/HD-DVDs
Language                         : English

Text #2
ID                               : 4
Format                           : VobSub
Codec ID                         : S_VOBSUB
Codec ID/Info                    : The same subtitle format used on DVDs
Language                         : Bulgarian

Text #3
ID                               : 5
Format                           : PGS
Codec ID                         : S_HDMV/PGS
Codec ID/Info                    : The same subtitle format used on BDs/HD-DVDs
Language                         : English

Text #4
ID                               : 6
Format                           : PGS
Codec ID                         : S_HDMV/PGS
Codec ID/Info                    : The same subtitle format used on BDs/HD-DVDs
Language                         : English

Text #5
ID                               : 7
Format                           : PGS
Codec ID                         : S_HDMV/PGS
Codec ID/Info                    : The same subtitle format used on BDs/HD-DVDs
Language                         : Bulgarian

Text #6
ID                               : 8
Format                           : PGS
Codec ID                         : S_HDMV/PGS
Codec ID/Info                    : The same subtitle format used on BDs/HD-DVDs
Language                         : Croatian

Text #7
ID                               : 9
Format                           : PGS
Codec ID                         : S_HDMV/PGS
Codec ID/Info                    : The same subtitle format used on BDs/HD-DVDs
Language                         : Czech

Text #8
ID                               : 10
Format                           : PGS
Codec ID                         : S_HDMV/PGS
Codec ID/Info                    : The same subtitle format used on BDs/HD-DVDs
Language                         : Italian

Text #9
ID                               : 11
Format                           : PGS
Codec ID                         : S_HDMV/PGS
Codec ID/Info                    : The same subtitle format used on BDs/HD-DVDs
Language                         : Italian

Text #10
ID                               : 12
Format                           : PGS
Codec ID                         : S_HDMV/PGS
Codec ID/Info                    : The same subtitle format used on BDs/HD-DVDs
Language                         : Italian

Text #11
ID                               : 13
Format                           : PGS
Codec ID                         : S_HDMV/PGS
Codec ID/Info                    : The same subtitle format used on BDs/HD-DVDs
Language                         : Romanian

Text #12
ID                               : 14
Format                           : PGS
Codec ID                         : S_HDMV/PGS
Codec ID/Info                    : The same subtitle format used on BDs/HD-DVDs
Language                         : Russian

Text #13
ID                               : 15
Format                           : PGS
Codec ID                         : S_HDMV/PGS
Codec ID/Info                    : The same subtitle format used on BDs/HD-DVDs
Language                         : Russian

Text #14
ID                               : 16
Format                           : PGS
Codec ID                         : S_HDMV/PGS
Codec ID/Info                    : The same subtitle format used on BDs/HD-DVDs
Language                         : Russian

Text #15
ID                               : 17
Format                           : PGS
Codec ID                         : S_HDMV/PGS
Codec ID/Info                    : The same subtitle format used on BDs/HD-DVDs
Language                         : Slovenian

Text #16
ID                               : 18
Format                           : PGS
Codec ID                         : S_HDMV/PGS
Codec ID/Info                    : The same subtitle format used on BDs/HD-DVDs
Language                         : Turkish

Menu
00:00:00.000                     : en:00:00:00.000
00:00:21.104                     : en:00:00:21.104
00:01:54.865                     : en:00:01:54.865
00:04:15.839                     : en:00:04:15.839
00:08:19.249                     : en:00:08:19.249
00:10:15.949                     : en:00:10:15.949
00:12:57.735                     : en:00:12:57.735
00:15:13.538                     : en:00:15:13.538
00:16:29.697                     : en:00:16:29.697
00:18:19.974                     : en:00:18:19.974
00:19:45.393                     : en:00:19:45.393
00:21:22.698                     : en:00:21:22.698
00:23:57.728                     : en:00:23:57.728
00:25:49.423                     : en:00:25:49.423
00:29:29.351                     : en:00:29:29.351
00:31:29.221                     : en:00:31:29.221
00:33:37.682                     : en:00:33:37.682
00:35:55.153                     : en:00:35:55.153
00:36:51.251                     : en:00:36:51.251
00:38:33.561                     : en:00:38:33.561
00:40:36.726                     : en:00:40:36.726
00:44:20.074                     : en:00:44:20.074
00:46:08.391                     : en:00:46:08.391
00:50:13.385                     : en:00:50:13.385
00:52:16.633                     : en:00:52:16.633
00:54:20.257                     : en:00:54:20.257
00:57:40.290                     : en:00:57:40.290
01:00:57.946                     : en:01:00:57.946
01:03:42.777                     : en:01:03:42.777
01:05:46.109                     : en:01:05:46.109
01:08:12.171                     : en:01:08:12.171
01:13:24.233                     : en:01:13:24.233
01:16:39.887                     : en:01:16:39.887
01:18:24.116                     : en:01:18:24.116
01:19:45.864                     : en:01:19:45.864
01:22:55.929                     : en:01:22:55.929
01:25:38.550                     : en:01:25:38.550
01:27:51.266                     : en:01:27:51.266
01:30:28.673                     : en:01:30:28.673
01:34:39.799                     : en:01:34:39.799
01:38:28.903                     : en:01:38:28.903
01:40:26.145                     : en:01:40:26.145
01:41:46.100                     : en:01:41:46.100
01:43:51.434                     : en:01:43:51.434
01:47:02.541                     : en:01:47:02.541
01:49:21.472                     : en:01:49:21.472
01:53:41.690                     : en:01:53:41.690
01:56:14.843                     : en:01:56:14.843
01:59:46.596                     : en:01:59:46.596
02:01:58.228                     : en:02:01:58.228

  ----------------------------------------------------------------------------------------

                      Star Wars: Episode VI - Return of the Jedi (1983)

                                                             
    General Information:                                          
    ====================
                                                        
      Release Name....: Star.Wars.Episode.VI.Return.of.the.Jedi.1983.Blu-ray.Remux.1080p.AVC.DTS-HD.MA.6.1-HDRemuX   
      Remux Date......: 17.09.2011 (D:M:Y) 
      IMDb link.......: http://www.imdb.com/title/tt0086190/
      Genre...........: Action | Adventure | Family | Fantasy | Sci-Fi
      Runtime.........: 2h:14mn                       

      Plot............: Darth Vader and the Empire are building a new, indestructible Death Star. Meanwhile, Han Solo 
                        has been imprisoned, and Luke Skywalker has sent R2D2 and C3PO to try and free him. Princess 
                        Leia - disguised as a bounty hunter - and Chewbacca go along as well. The final battle takes 
                        place on the moon of Endor, with its natural inhabitants, the Ewoks, lending a hand to the rebels.
                        Will Darth Vader and the dark side overcome the rebels and take over the universe ?                     
                                                                                                                          
    Technical Specification:                        
    ========================                           
                     
      Source..........: Star.Wars.Episode.6.Return.of.the.Jedi.1983.BluRay.1080p.AVC.DTS-HD.MA6.1-CHDBits 
      Source CEE Subtitles - STAR_WARS_COMPLETE_BD_BLUEBIRD
      Format..........: Matroska
      File Size.......: 33.6 GB                                 
      Resolution......: 1920x1080 pixels                             
      Video Codec.....: AVC, High@L4.1                                  
      Bit Rate........: 33.5 Mbps                            
      Aspect Ratio....: 16:9                                   
      Frame Rate......: 23.976 fps  
      ReFrames........: 4 frames                             
      Audio...........: English, DTS-HD, 7 channels, Variable Kbps, 48.0 Khz, 24 bits
      Subtitles.......: English, Bulgarian, Croatian, Czech, Italian, Romanian, Russian, Slovenian, Turkish                                      
      Remux...........: RedCafe                               
      Contact.........: redcafeman@yahoo.com 

  ----------------------------------------------------------------------------------------

    Media Info:                        
    =========== 

General
Unique ID                        : 177197160600339793054173323011842922780 (0x854EEE88386E4A889E3840C64804591C)
Complete name                    : Star.Wars.Episode.VI.Return.of.the.Jedi.1983.Blu-ray.Remux.1080p.AVC.DTS-HD.MA.6.1-HDRemuX.mkv
Format                           : Matroska
Format version                   : Version 2
File size                        : 33.6 GiB
Duration                         : 2h 14mn
Overall bit rate                 : 35.7 Mbps
Encoded date                     : UTC 2011-09-17 12:43:01
Writing application              : mkvmerge v4.9.1 ('Ich will') built on Jul 11 2011 23:53:15
Writing library                  : libebml v1.2.1 + libmatroska v1.1.1

Video
ID                               : 1
Format                           : AVC
Format/Info                      : Advanced Video Codec
Format profile                   : High@L4.1
Format settings, CABAC           : Yes
Format settings, ReFrames        : 4 frames
Codec ID                         : V_MPEG4/ISO/AVC
Duration                         : 2h 14mn
Bit rate mode                    : Variable
Bit rate                         : 33.5 Mbps
Maximum bit rate                 : 36.8 Mbps
Width                            : 1 920 pixels
Height                           : 1 080 pixels
Display aspect ratio             : 16:9
Frame rate                       : 23.976 fps
Color space                      : YUV
Chroma subsampling               : 4:2:0
Bit depth                        : 8 bits
Scan type                        : Progressive
Bits/(Pixel*Frame)               : 0.673
Stream size                      : 31.5 GiB (94%)
Language                         : English
Color primaries                  : BT.709-5, BT.1361, IEC 61966-2-4, SMPTE RP177
Transfer characteristics         : BT.709-5, BT.1361
Matrix coefficients              : BT.709-5, BT.1361, IEC 61966-2-4 709, SMPTE RP177

Audio
ID                               : 2
Format                           : DTS
Format/Info                      : Digital Theater Systems
Format profile                   : MA / Core
Codec ID                         : A_DTS
Duration                         : 2h 14mn
Bit rate mode                    : Variable
Bit rate                         : 1 510 Kbps
Channel(s)                       : 7 channels / 6 channels
Channel positions                : Front: L C R, Side: L R, Back: C, LFE / Front: L C R, Side: L R, LFE
Sampling rate                    : 48.0 KHz
Bit depth                        : 24 bits
Compression mode                 : Lossless / Lossy
Stream size                      : 1.42 GiB (4%)
Language                         : English

Text #1
ID                               : 3
Format                           : PGS
Codec ID                         : S_HDMV/PGS
Codec ID/Info                    : The same subtitle format used on BDs/HD-DVDs
Language                         : English

Text #2
ID                               : 4
Format                           : VobSub
Codec ID                         : S_VOBSUB
Codec ID/Info                    : The same subtitle format used on DVDs
Language                         : Bulgarian

Text #3
ID                               : 5
Format                           : PGS
Codec ID                         : S_HDMV/PGS
Codec ID/Info                    : The same subtitle format used on BDs/HD-DVDs
Language                         : English

Text #4
ID                               : 6
Format                           : PGS
Codec ID                         : S_HDMV/PGS
Codec ID/Info                    : The same subtitle format used on BDs/HD-DVDs
Language                         : English

Text #5
ID                               : 7
Format                           : PGS
Codec ID                         : S_HDMV/PGS
Codec ID/Info                    : The same subtitle format used on BDs/HD-DVDs
Language                         : English

Text #6
ID                               : 8
Format                           : PGS
Codec ID                         : S_HDMV/PGS
Codec ID/Info                    : The same subtitle format used on BDs/HD-DVDs
Language                         : Bulgarian

Text #7
ID                               : 9
Format                           : PGS
Codec ID                         : S_HDMV/PGS
Codec ID/Info                    : The same subtitle format used on BDs/HD-DVDs
Language                         : Croatian

Text #8
ID                               : 10
Format                           : PGS
Codec ID                         : S_HDMV/PGS
Codec ID/Info                    : The same subtitle format used on BDs/HD-DVDs
Language                         : Czech

Text #9
ID                               : 11
Format                           : PGS
Codec ID                         : S_HDMV/PGS
Codec ID/Info                    : The same subtitle format used on BDs/HD-DVDs
Language                         : Italian

Text #10
ID                               : 12
Format                           : PGS
Codec ID                         : S_HDMV/PGS
Codec ID/Info                    : The same subtitle format used on BDs/HD-DVDs
Language                         : Italian

Text #11
ID                               : 13
Format                           : PGS
Codec ID                         : S_HDMV/PGS
Codec ID/Info                    : The same subtitle format used on BDs/HD-DVDs
Language                         : Italian

Text #12
ID                               : 14
Format                           : PGS
Codec ID                         : S_HDMV/PGS
Codec ID/Info                    : The same subtitle format used on BDs/HD-DVDs
Language                         : Romanian

Text #13
ID                               : 15
Format                           : PGS
Codec ID                         : S_HDMV/PGS
Codec ID/Info                    : The same subtitle format used on BDs/HD-DVDs
Language                         : Russian

Text #14
ID                               : 16
Format                           : PGS
Codec ID                         : S_HDMV/PGS
Codec ID/Info                    : The same subtitle format used on BDs/HD-DVDs
Language                         : Russian

Text #15
ID                               : 17
Format                           : PGS
Codec ID                         : S_HDMV/PGS
Codec ID/Info                    : The same subtitle format used on BDs/HD-DVDs
Language                         : Russian

Text #16
ID                               : 18
Format                           : PGS
Codec ID                         : S_HDMV/PGS
Codec ID/Info                    : The same subtitle format used on BDs/HD-DVDs
Language                         : Slovenian

Text #17
ID                               : 19
Format                           : PGS
Codec ID                         : S_HDMV/PGS
Codec ID/Info                    : The same subtitle format used on BDs/HD-DVDs
Language                         : Turkish

Menu
00:00:00.000                     : en:00:00:00.000
00:00:21.188                     : en:00:00:21.188
00:01:55.115                     : en:00:01:55.115
00:04:58.465                     : en:00:04:58.465
00:08:10.907                     : en:00:08:10.907
00:12:21.908                     : en:00:12:21.908
00:14:22.028                     : en:00:14:22.028
00:17:36.013                     : en:00:17:36.013
00:22:10.037                     : en:00:22:10.037
00:25:08.340                     : en:00:25:08.340
00:29:37.359                     : en:00:29:37.359
00:31:29.012                     : en:00:31:29.012
00:37:44.471                     : en:00:37:44.471
00:39:32.245                     : en:00:39:32.245
00:45:17.423                     : en:00:45:17.423
00:48:23.400                     : en:00:48:23.400
00:51:36.010                     : en:00:51:36.010
00:53:32.668                     : en:00:53:32.668
00:54:25.095                     : en:00:54:25.095
00:56:55.245                     : en:00:56:55.245
00:58:43.812                     : en:00:58:43.812
01:02:41.716                     : en:01:02:41.716
01:06:19.267                     : en:01:06:19.267
01:07:47.480                     : en:01:07:47.480
01:12:01.108                     : en:01:12:01.108
01:15:52.673                     : en:01:15:52.673
01:18:14.815                     : en:01:18:14.815
01:22:30.404                     : en:01:22:30.404
01:26:06.870                     : en:01:26:06.870
01:26:52.082                     : en:01:26:52.082
01:27:50.891                     : en:01:27:50.891
01:30:04.524                     : en:01:30:04.524
01:33:19.135                     : en:01:33:19.135
01:36:41.421                     : en:01:36:41.421
01:40:25.186                     : en:01:40:25.186
01:42:23.179                     : en:01:42:23.179
01:44:27.803                     : en:01:44:27.803
01:45:26.946                     : en:01:45:26.946
01:48:42.433                     : en:01:48:42.433
01:50:40.634                     : en:01:50:40.634
01:51:37.107                     : en:01:51:37.107
01:54:37.120                     : en:01:54:37.120
01:55:07.859                     : en:01:55:07.859
01:55:57.492                     : en:01:55:57.492
01:57:40.178                     : en:01:57:40.178
01:59:34.167                     : en:01:59:34.167
02:01:58.853                     : en:02:01:58.853
02:04:50.566                     : en:02:04:50.566
02:05:27.437                     : en:02:05:27.437
02:07:56.043                     : en:02:07:56.043
Imagem Imagem
Imagem Imagem
Imagem Imagem

phpBB [video]


LINKS:

ed2k: Star.Wars.Episode.I.The.Phantom.Menace.1999.Blu-ray.Remux.1080p.AVC.DTS-HD.MA.6.1-HDRemuX.mkv  [34.09 Gb]
ed2k: Star.Wars.Episode.I.The.Phantom.Menace.1999.Blu-ray.Remux.1080p.AVC.DTS-HD.MA.6.1-HDRemuX.srt  [88.4 Kb]

ed2k: Star.Wars.Episode.II.Attack.of.the.Clones.2002.Blu-ray.Remux.1080p.AVC.DTS-HD.MA.6.1-HDRemuX.mkv  [33.79 Gb]
ed2k: Star.Wars.Episode.II.Attack.of.the.Clones.2002.Blu-ray.Remux.1080p.AVC.DTS-HD.MA.6.1-HDRemuX.srt  [84.4 Kb]

ed2k: Star.Wars.Episode.III.Revenge.of.the.Sith.2005.Blu-ray.Remux.1080p.AVC.DTS-HD.MA.6.1-HDRemuX.mkv  [34.08 Gb]
ed2k: Star.Wars.Episode.III.Revenge.of.the.Sith.2005.Blu-ray.Remux.1080p.AVC.DTS-HD.MA.6.1-HDRemuX.srt  [79.3 Kb]

ed2k: Star.Wars.Episode.IV.A.New.Hope.1977.Blu-ray.Remux.1080p.AVC.DTS-HD.MA.6.1-HDRemuX.mkv  [33.21 Gb]
ed2k: Star.Wars.Episode.IV.A.New.Hope.1977.Blu-ray.Remux.1080p.AVC.DTS-HD.MA.6.1-HDRemuX.srt  [98.6 Kb]

ed2k: Star.Wars.Episode.V.The.Empire.Strikes.Back.1980.Blu-ray.Remux.1080p.AVC.DTS-HD.MA.6.1-HDRemuX.mkv  [33.42 Gb]
ed2k: Star.Wars.Episode.V.The.Empire.Strikes.Back.1980.Blu-ray.Remux.1080p.AVC.DTS-HD.MA.6.1-HDRemuX.srt  [84.7 Kb]

ed2k: Star.Wars.Episode.VI.Return.of.the.Jedi.1983.Blu-ray.Remux.1080p.AVC.DTS-HD.MA.6.1-HDRemuX.mkv  [33.61 Gb]
ed2k: Star.Wars.Episode.VI.Return.of.the.Jedi.1983.Blu-ray.Remux.1080p.AVC.DTS-HD.MA.6.1-HDRemuX.srt  [70.7 Kb]
Não tem Permissão para ver os ficheiros anexados nesta mensagem.
Imagem

Imagem

Responder

Voltar para “Colecções // Collections”