Pixel Perfect (2004) *BR FS DVDRip*

Filmes com legendas embutidas PT / BR (Subbed)

Moderador: Moderador

Responder
Avatar do Utilizador
MuMuGoN
eMuleCoop
eMuleCoop
Mensagens: 745
Registado: 23 jul 2012, 02:08

Pixel Perfect (2004) *BR FS DVDRip*

Mensagem por MuMuGoN » 26 out 2014, 14:44

Imagem


Sinopse
Samantha (Leah Pipes) é a líder de uma banda que luta para conseguir o seu espaço. Quando o seu amigo Roscoe (Raviv Ullman) cria uma cantora virtual, o grupo torna-se um sucesso. Mas tudo se complica quando Roscoe tem de lidar com os sentimentos de Samantha e os da sua própria criação.


imdb.com
Pixel Perfect (2004)

Capa
Sinopse:When holography is used to create a new pop star, things start to go awry.
Pontuação:5.8
Duração:85 minutos
Idioma:English, German
Realizador:Mark A.Z. Dippé
Actores:Raviv Ullman, Leah Pipes, Spencer Redford, Chad 'Chato' Alger, Robin Ballard
  
Fonte:http://www.imdb.com/title/tt0393596
Última Actualização:Segunda Março 12, 2018 07:40


Código: Selecionar todos

General
Complete name                            : E:\eMule\Pixel.Perfect (2004).FS.DVDRip.XviD.Dublado.Brasil.[TheRostrum.net].avi
Format                                   : AVI
Format/Info                              : Audio Video Interleave
File size                                : 540 MiB
Duration                                 : 1h 30mn
Overall bit rate                         : 839 Kbps
Writing library                          : VirtualDub build 24469/release

Video
ID                                       : 0
Format                                   : MPEG-4 Visual
Format profile                           : Advanced Simple@L5
Format settings, BVOP                    : 1
Format settings, QPel                    : No
Format settings, GMC                     : No warppoints
Format settings, Matrix                  : Custom
Codec ID                                 : XVID
Codec ID/Hint                            : XviD
Duration                                 : 1h 30mn
Bit rate                                 : 700 Kbps
Width                                    : 640 pixels
Height                                   : 480 pixels
Display aspect ratio                     : 4:3
Frame rate                               : 29.970 fps
Color space                              : YUV
Chroma subsampling                       : 4:2:0
Bit depth                                : 8 bits
Scan type                                : Progressive
Compression mode                         : Lossy
Bits/(Pixel*Frame)                       : 0.076
Stream size                              : 450 MiB (83%)
Writing library                          : XviD 1.1.2 (UTC 2006-11-01)

Audio
ID                                       : 1
Format                                   : MPEG Audio
Format version                           : Version 1
Format profile                           : Layer 3
Mode                                     : Joint stereo
Mode extension                           : MS Stereo
Codec ID                                 : 55
Codec ID/Hint                            : MP3
Duration                                 : 1h 30mn
Bit rate mode                            : Constant
Bit rate                                 : 128 Kbps
Channel(s)                               : 2 channels
Sampling rate                            : 48.0 KHz
Compression mode                         : Lossy
Stream size                              : 82.4 MiB (15%)
Alignment                                : Split accross interleaves
Interleave, duration                     : 33 ms (1.00 video frame)
Interleave, preload duration             : 500 ms




Imagem Imagem
Imagem Imagem
Imagem Imagem
Imagem Imagem


[youtube]http://www.youtube.com/watch?v=naYiNiRz8no[/youtube]


ed2k: Pixel.Perfect (2004).Dublado.Brasil.avi  [540.38 Mb]
:cavalinho: :dead_horse: :dead_horse: :dead_horse:

Responder
  • Tópicos Semelhantes
    Respostas
    Visualizações
    Última Mensagem

Voltar para “Filmes Legendados // Movies With Subtitles Inscription”