Snow White and The Huntsman (2012) [EXTENDED] *LPT BDRip* - SMCO

Filmes com legendas embutidas PT / BR (Subbed)

Moderador: Moderador

Responder
Avatar do Utilizador
Barefaced
Administrador
Administrador
Mensagens: 39099
Registado: 06 jul 2007, 17:43
Localização: @ Home
Contacto:

Snow White and The Huntsman (2012) [EXTENDED] *LPT BDRip* - SMCO

Mensagem por Barefaced » 12 jan 2013, 15:19




Synopsis
Nova versão do lendário conto “A Branca de Neve e o Caçador”, a história de Branca de Neve, a única pessoa na terra mais bela que a Rainha má, que fará de tudo para a destruir. A jovem Branca de Neve aprende a arte da guerra com um caçador, que supostamente teria a missão de a matar, e ameaça o reino desta Rainha do maléfico.


imdb.com
Snow White and the Huntsman (2012)

Capa
Sinopse:In a twist to the fairy tale, the Huntsman ordered to take Snow White into the woods to be killed winds up becoming her protector and mentor in a quest to vanquish the Evil Queen.
Pontuação:6.1
Duração:127 minutos
Idioma:English
Realizador:Rupert Sanders
Actores:Kristen Stewart, Chris Hemsworth, Charlize Theron, Sam Claflin, Sam Spruell
  
Fonte:http://www.imdb.com/title/tt1735898
Última Actualização:Segunda Março 12, 2018 09:26


Código: Selecionar todos

General
Complete name                            : D:\eMule\Snow.White.and.the.Huntsman.(2012).EXTENDED.BRRip.XviD.AC3.LPT-SMCO.[TheRostrum.net].avi
Format                                   : AVI
Format/Info                              : Audio Video Interleave
Format profile                           : OpenDML
File size                                : 2.65 GiB
Duration                                 : 2h 4mn
Overall bit rate                         : 3 054 Kbps

Video
ID                                       : 0
Format                                   : MPEG-4 Visual
Format profile                           : Advanced Simple@L5
Format settings, BVOP                    : 2
Format settings, QPel                    : No
Format settings, GMC                     : No warppoints
Format settings, Matrix                  : Default (H.263)
Muxing mode                              : Packed bitstream
Codec ID                                 : XVID
Codec ID/Hint                            : XviD
Duration                                 : 2h 4mn
Bit rate                                 : 2 601 Kbps
Width                                    : 720 pixels
Height                                   : 304 pixels
Display aspect ratio                     : 2.35:1
Frame rate                               : 23.976 fps
Original frame rate                      : 25.000 fps
Color space                              : YUV
Chroma subsampling                       : 4:2:0
Bit depth                                : 8 bits
Scan type                                : Progressive
Compression mode                         : Lossy
Bits/(Pixel*Frame)                       : 0.496
Stream size                              : 2.25 GiB (85%)
Writing library                          : XviD 1.2.0.dev47 (UTC 2006-11-01)

Audio
ID                                       : 1
Format                                   : AC-3
Format/Info                              : Audio Coding 3
Mode extension                           : CM (complete main)
Format settings, Endianness              : Big
Codec ID                                 : 2000
Duration                                 : 2h 4mn
Bit rate mode                            : Constant
Bit rate                                 : 448 Kbps
Channel(s)                               : 6 channels
Channel positions                        : Front: L C R, Side: L R, LFE
Sampling rate                            : 48.0 KHz
Bit depth                                : 16 bits
Compression mode                         : Lossy
Stream size                              : 398 MiB (15%)
Alignment                                : Split accross interleaves
Interleave, duration                     : 959 ms (23.00 video frames)














ed2k: Snow.White.and.the.Huntsman.(2012).EXTENDED.BRRip.XviD.AC3.LPT-SMCO.[TheRostrum.net].avi  [2.65 Gb]
Imagem
Imagem

Responder
  • Tópicos Semelhantes
    Respostas
    Visualizações
    Última Mensagem

Voltar para “Filmes Legendados // Movies With Subtitles Inscription”