John Carter (2012) *LPT BDRip* - SMCO

Filmes com legendas embutidas PT / BR (Subbed)

Moderador: Moderador

Responder
Avatar do Utilizador
Barefaced
Administrador
Administrador
Mensagens: 37299
Registado: 06 jul 2007, 17:43
Localização: @ Home
Contacto:

John Carter (2012) *LPT BDRip* - SMCO

Mensagem por Barefaced » 27 jun 2012, 23:32




Sinopse
Inspirado no clássico de Edgar Rice Burroughs. O filme conta-nos a história de John Carter, um capitão veterano de guerra, que inexplicavelmente é transportado para Marte onde, e ainda que relutantemente, é envolvido num conflito de proporções épicas entre os habitantes do planeta, que inclui Tars Tarkas e a cativante Princesa Dejah Thoris. Num mundo à beira do colapso, Carter redescobre a sua humanidade quando percebe que a sobrevivência de Barsoom e do seu povo está nas suas mãos.


imdb.com
John Carter (2012)

Capa
Sinopse:Transported to Barsoom, a Civil War vet discovers a barren planet seemingly inhabited by 12-foot tall barbarians. Finding himself prisoner of these creatures, he escapes, only to encounter Woola and a princess in desperate need of a savior.
Pontuação:6.6
Duração:132 minutos
Idioma:English
Realizador:Andrew Stanton
Actores:Taylor Kitsch, Lynn Collins, Samantha Morton, Willem Dafoe, Thomas Haden Church
  
Fonte:http://www.imdb.com/title/tt0401729
Última Actualização:Segunda Março 12, 2018 09:59


Código: Selecionar todos

General
Complete name                            : John.Carter.(2012).BRRip.XviD.AC3.LPT-SMCO.[TheRostrum.net].avi
Format                                   : AVI
Format/Info                              : Audio Video Interleave
Format profile                           : OpenDML
File size                                : 2.61 GiB
Duration                                 : 2h 5mn
Overall bit rate                         : 2 985 Kbps

Video
ID                                       : 0
Format                                   : MPEG-4 Visual
Format profile                           : Advanced Simple@L5
Format settings, BVOP                    : 2
Format settings, QPel                    : No
Format settings, GMC                     : No warppoints
Format settings, Matrix                  : Default (H.263)
Muxing mode                              : Packed bitstream
Codec ID                                 : XVID
Codec ID/Hint                            : XviD
Duration                                 : 2h 5mn
Bit rate                                 : 2 532 Kbps
Width                                    : 720 pixels
Height                                   : 304 pixels
Display aspect ratio                     : 2.35:1
Frame rate                               : 23.976 fps
Original frame rate                      : 25.000 fps
Color space                              : YUV
Chroma subsampling                       : 4:2:0
Bit depth                                : 8 bits
Scan type                                : Progressive
Compression mode                         : Lossy
Bits/(Pixel*Frame)                       : 0.483
Stream size                              : 2.22 GiB (85%)
Writing library                          : XviD 1.2.0.dev47 (UTC 2006-11-01)

Audio
ID                                       : 1
Format                                   : AC-3
Format/Info                              : Audio Coding 3
Mode extension                           : CM (complete main)
Format settings, Endianness              : Big
Codec ID                                 : 2000
Duration                                 : 2h 5mn
Bit rate mode                            : Constant
Bit rate                                 : 448 Kbps
Channel(s)                               : 6 channels
Channel positions                        : Front: L C R, Side: L R, LFE
Sampling rate                            : 48.0 KHz
Bit depth                                : 16 bits
Compression mode                         : Lossy
Stream size                              : 402 MiB (15%)
Alignment                                : Split accross interleaves
Interleave, duration                     : 959 ms (23.00 video frames)



Imagem

Imagem

Imagem

Imagem

Imagem


ed2k: John.Carter.(2012).BRRip.XviD.AC3.LPT-SMCO.[TheRostrum.net].avi  [2.61 Gb]
Imagem
Imagem

capivara
Utilizador
Utilizador
Mensagens: 38
Registado: 21 ago 2012, 22:51

Re: John Carter (2012) *LPT BDRip* - SMCO

Mensagem por capivara » 26 ago 2012, 21:31

muito obrigado pelo post.
:goodpost: :goodpost: :goodpost:

Responder

Voltar para “Filmes Legendados // Movies With Subtitles Inscription”