A Dangerous Method (2011) *LPT BDRip* - SMCO

Filmes com legendas embutidas PT / BR (Subbed)

Moderador: Moderador

Responder
Avatar do Utilizador
Barefaced
Administrador
Administrador
Mensagens: 39099
Registado: 06 jul 2007, 17:43
Localização: @ Home
Contacto:

A Dangerous Method (2011) *LPT BDRip* - SMCO

Mensagem por Barefaced » 27 jun 2012, 23:19




Synopsis
Seduzido pelo desafio de um caso impossível, o Dr. Carl Jung aceita a bela mas desequilibrada Sabina Spielrein, como sua paciente em "Um Método Perigoso". A arma de Jung é o método utilizado pelo seu mestre, o célebre Sigmund Freud. Ambos acabarão por cair no feitiço de Sabina.


imdb.com
A Dangerous Method (2011)

Capa
Sinopse:A look at how the intense relationship between Carl Jung and Sigmund Freud gives birth to psychoanalysis.
Pontuação:6.5
Duração:99 minutos
Idioma:English
Realizador:David Cronenberg
Actores:Keira Knightley, Viggo Mortensen, Michael Fassbender, Vincent Cassel, Sarah Gadon
  
Fonte:http://www.imdb.com/title/tt1571222
Última Actualização:Segunda Março 12, 2018 10:12


Código: Selecionar todos

General
Complete name                            : A.Dangerous.Method.(2011).BRRip.XviD.AC3.LPT-SMCO.[TheRostrum.net].avi
Format                                   : AVI
Format/Info                              : Audio Video Interleave
Format profile                           : OpenDML
File size                                : 2.09 GiB
Duration                                 : 1h 39mn
Overall bit rate                         : 3 005 Kbps

Video
ID                                       : 0
Format                                   : MPEG-4 Visual
Format profile                           : Advanced Simple@L5
Format settings, BVOP                    : 2
Format settings, QPel                    : No
Format settings, GMC                     : No warppoints
Format settings, Matrix                  : Default (H.263)
Muxing mode                              : Packed bitstream
Codec ID                                 : XVID
Codec ID/Hint                            : XviD
Duration                                 : 1h 39mn
Bit rate                                 : 2 616 Kbps
Width                                    : 720 pixels
Height                                   : 384 pixels
Display aspect ratio                     : 1.85:1
Frame rate                               : 23.976 fps
Original frame rate                      : 25.000 fps
Color space                              : YUV
Chroma subsampling                       : 4:2:0
Bit depth                                : 8 bits
Scan type                                : Progressive
Compression mode                         : Lossy
Bits/(Pixel*Frame)                       : 0.395
Stream size                              : 1.82 GiB (87%)
Writing library                          : XviD 1.2.0.dev47 (UTC 2006-11-01)

Audio
ID                                       : 1
Format                                   : AC-3
Format/Info                              : Audio Coding 3
Mode extension                           : CM (complete main)
Format settings, Endianness              : Big
Codec ID                                 : 2000
Duration                                 : 1h 39mn
Bit rate mode                            : Constant
Bit rate                                 : 384 Kbps
Channel(s)                               : 6 channels
Channel positions                        : Front: L C R, Side: L R, LFE
Sampling rate                            : 48.0 KHz
Bit depth                                : 16 bits
Compression mode                         : Lossy
Stream size                              : 273 MiB (13%)
Alignment                                : Split accross interleaves
Interleave, duration                     : 959 ms (23.00 video frames)



Imagem

Imagem

Imagem

Imagem

Imagem

Imagem

Imagem


ed2k: A.Dangerous.Method.(2011).BRRip.XviD.AC3.LPT-SMCO.[TheRostrum.net].avi  [2.09 Gb]
Imagem
Imagem

Responder
  • Tópicos Semelhantes
    Respostas
    Visualizações
    Última Mensagem

Voltar para “Filmes Legendados // Movies With Subtitles Inscription”