The Grey (2012) *LPT BDRip 720p* - SMCO

Filmes com legendas embutidas PT / BR (Subbed)

Moderador: Moderador

Responder
Avatar do Utilizador
Barefaced
Administrador
Administrador
Mensagens: 39099
Registado: 06 jul 2007, 17:43
Localização: @ Home
Contacto:

The Grey (2012) *LPT BDRip 720p* - SMCO

Mensagem por Barefaced » 27 jun 2012, 23:08




Sinopse
Ao fazer uma viagem tranquila para casa, um grupo de extratores de petróleo do Alasca acaba por sofrer um acidente aéreo. Do total dos 125 passageiros, apenas 8 sobrevivem. Magoados, eles tentam recuperar-se dos ferimentos quando descobrem que aquele é um local habitado por uma matilha de lobos selvagens. Considerando os humanos invasores, os animais passam a caçar lentamente os sobreviventes da queda do avião, levando-os a uma intensa luta pela sobrevivência.


imdb.com
The Grey (2011)

Capa
Sinopse:After their plane crashes in Alaska, six oil workers are led by a skilled huntsman to survival, but a pack of merciless wolves haunts their every step.
Pontuação:6.8
Duração:117 minutos
Idioma:English, Spanish
Realizador:Joe Carnahan
Actores:Liam Neeson, Frank Grillo, Dermot Mulroney, Dallas Roberts, Joe Anderson
  
Fonte:http://www.imdb.com/title/tt1601913
Última Actualização:Segunda Março 12, 2018 08:17


Código: Selecionar todos

General
Complete name                            : The.Grey.(2012).BDRip.AC3.720p.XviD.LPT-SMCO.[TheRostrum.net].avi
Format                                   : AVI
Format/Info                              : Audio Video Interleave
Format profile                           : OpenDML
File size                                : 2.35 GiB
Duration                                 : 1h 57mn
Overall bit rate                         : 2 876 Kbps
Writing application                      : VirtualDubMod 1.5.10.2 (build 2540/release)
Writing library                          : VirtualDubMod build 2540/release

Video
ID                                       : 0
Format                                   : MPEG-4 Visual
Format profile                           : Advanced Simple@L5
Format settings, BVOP                    : 2
Format settings, QPel                    : No
Format settings, GMC                     : No warppoints
Format settings, Matrix                  : Default (H.263)
Muxing mode                              : Packed bitstream
Codec ID                                 : XVID
Codec ID/Hint                            : XviD
Duration                                 : 1h 57mn
Bit rate                                 : 2 683 Kbps
Width                                    : 1 280 pixels
Height                                   : 544 pixels
Display aspect ratio                     : 2.35:1
Frame rate                               : 23.976 fps
Color space                              : YUV
Chroma subsampling                       : 4:2:0
Bit depth                                : 8 bits
Scan type                                : Progressive
Compression mode                         : Lossy
Bits/(Pixel*Frame)                       : 0.161
Stream size                              : 2.19 GiB (93%)
Writing library                          : XviD 1.2.0.dev47 (UTC 2006-11-01)

Audio
ID                                       : 1
Format                                   : AC-3
Format/Info                              : Audio Coding 3
Mode extension                           : CM (complete main)
Format settings, Endianness              : Big
Codec ID                                 : 2000
Duration                                 : 1h 50mn
Bit rate mode                            : Constant
Bit rate                                 : 192 Kbps
Channel(s)                               : 2 channels
Channel positions                        : Front: L R
Sampling rate                            : 48.0 KHz
Bit depth                                : 16 bits
Compression mode                         : Lossy
Delay relative to video                  : 25ms
Stream size                              : 152 MiB (6%)
Alignment                                : Split accross interleaves
Interleave, duration                     : 44 ms (1.06 video frame)
Interleave, preload duration             : 500 ms














ed2k: The.Grey.(2012).BDRip.AC3.720p.XviD.LPT-SMCO.[TheRostrum.net].avi  [2.35 Gb]
Imagem
Imagem

Responder
  • Tópicos Semelhantes
    Respostas
    Visualizações
    Última Mensagem

Voltar para “Filmes Legendados // Movies With Subtitles Inscription”