Green Zone (2010) *LPT BDRip* - SMCO

Filmes com legendas embutidas PT / BR (Subbed)

Moderador: Moderador

Responder
Avatar do Utilizador
Barefaced
Administrador
Administrador
Mensagens: 39108
Registado: 06 jul 2007, 17:43
Localização: @ Home
Contacto:

Green Zone (2010) *LPT BDRip* - SMCO

Mensagem por Barefaced » 13 abr 2012, 10:16




Sinopse
Durante a ocupação de Bagdad pelos EUA, em 2003, o Sargento Roy Miller e a sua equipa de inspectores do exército são destacados para localizar armas de destruição massiva no deserto do Iraque, onde se previa estarem armazenadas. Inspeccionando os mais armadilhados e traiçoeiros lugares, a equipa procura agentes químicos mortais mas, em vez disso, deparara-se com um elaborado esquema que inverte o objectivo da sua missão…


imdb.com
Route Irish (2010)

Capa
Sinopse:The story of a private security contractor in Iraq who rejected the official explanation of his friend's death and sets out to discover the truth.
Pontuação:6.4
Duração:109 minutos
Idioma:English, Arabic
Realizador:Ken Loach
Actores:Mark Womack, Andrea Lowe, John Bishop, Geoff Bell, Jack Fortune
  
Fonte:http://www.imdb.com/title/tt1528312
Última Actualização:Segunda Março 12, 2018 09:30


Código: Selecionar todos

General
Complete name                            : Green.Zone.(2010).BRRip.XviD.AC3.LPT-SMCO.avi
Format                                   : AVI
Format/Info                              : Audio Video Interleave
File size                                : 1.84 GiB
Duration                                 : 1h 45mn
Overall bit rate                         : 2 505 Kbps
Writing application                      : VirtualDubMod 1.5.10.2 (build 2540/release)
Writing library                          : VirtualDubMod build 2540/release

Video
ID                                       : 0
Format                                   : MPEG-4 Visual
Format profile                           : Advanced Simple@L5
Format settings, BVOP                    : 2
Format settings, QPel                    : No
Format settings, GMC                     : No warppoints
Format settings, Matrix                  : Default (H.263)
Muxing mode                              : Packed bitstream
Codec ID                                 : XVID
Codec ID/Hint                            : XviD
Duration                                 : 1h 45mn
Bit rate                                 : 2 047 Kbps
Width                                    : 720 pixels
Height                                   : 304 pixels
Display aspect ratio                     : 2.35:1
Frame rate                               : 23.976 fps
Color space                              : YUV
Chroma subsampling                       : 4:2:0
Bit depth                                : 8 bits
Scan type                                : Progressive
Compression mode                         : Lossy
Bits/(Pixel*Frame)                       : 0.390
Stream size                              : 1.51 GiB (82%)
Writing library                          : XviD 1.2.0.dev47 (UTC 2006-11-01)

Audio
ID                                       : 1
Format                                   : AC-3
Format/Info                              : Audio Coding 3
Mode extension                           : CM (complete main)
Format settings, Endianness              : Big
Codec ID                                 : 2000
Duration                                 : 1h 45mn
Bit rate mode                            : Constant
Bit rate                                 : 448 Kbps
Channel(s)                               : 6 channels
Channel positions                        : Front: L C R, Side: L R, LFE
Sampling rate                            : 48.0 KHz
Bit depth                                : 16 bits
Compression mode                         : Lossy
Stream size                              : 338 MiB (18%)
Alignment                                : Split accross interleaves
Interleave, duration                     : 42 ms (1.00 video frame)
Interleave, preload duration             : 500 ms




Imagem

Imagem

Imagem

Imagem

Imagem


ed2k: Green.Zone.(2010).BRRip.XviD.AC3.LPT-SMCO.[TheRostrum.net].avi  [1.84 Gb]
Imagem
Imagem

Responder
  • Tópicos Semelhantes
    Respostas
    Visualizações
    Última Mensagem

Voltar para “Filmes Legendados // Movies With Subtitles Inscription”