Green Lantern (2011) *EXTENDED LPT BDRip* - SMCO

Filmes com legendas embutidas PT / BR (Subbed)

Moderador: Moderador

Responder
Avatar do Utilizador
Barefaced
Administrador
Administrador
Mensagens: 39110
Registado: 06 jul 2007, 17:43
Localização: @ Home
Contacto:

Green Lantern (2011) *EXTENDED LPT BDRip* - SMCO

Mensagem por Barefaced » 13 abr 2012, 09:21




Sinopse
Em um universo tão vasto quanto misterioso, uma pequena mas poderosa força existe há séculos. Protetora da paz e da justiça, ela é conhecida como a Tropa dos Lanternas Verdes. Uma irmandade de guerreiros designada a manter a ordem intergaláctica, na qual cada Lanterna Verde possui um anel que lhe garante superpoderes. Porém, um novo inimigo chamado Parallax ameaça destruir o equilíbrio das forças do Universo e o destino dos guerreiros e do planeta Terra estará nas mãos do seu mais novo recruta, o primeiro humano a ser selecionado para a Tropa: Hal Jordan (Ray Reynolds). Hal é um piloto de testes talentoso e audacioso, mas os Lanternas Verdes têm pouco respeito pelos humanos, que nunca utilizaram os poderes infinitos que o anel proporciona. No entanto, Hal é obviamente a peça que faltava e, além de sua determinação e força de vontade, tem mais uma virtude que nenhum outro membro da Tropa possui: humanidade. Com o apoio de Carol Ferris (Blake Lively), sua colega de pilotagem e namorada de infância, Hal precisa aprender rapidamente a dominar seus novos poderes e encontrar a coragem para vencer seus medos, assim ele poderá provar que não só é o único capaz de derrotar Parallax como também se tornará o maior Lanterna Verde de todos.


imdb.com
Green Lantern (2011)

Capa
Sinopse:Reckless test pilot Hal Jordan is granted an alien ring that bestows him with otherworldly powers that inducts him into an intergalactic police force, the Green Lantern Corps.
Pontuação:5.6
Duração:114 minutos
Idioma:English
Realizador:Martin Campbell
Actores:Ryan Reynolds, Blake Lively, Peter Sarsgaard, Mark Strong, Tim Robbins
  
Fonte:http://www.imdb.com/title/tt1133985
Última Actualização:Segunda Março 12, 2018 08:57


Código: Selecionar todos

General
Complete name                            : Green.Lantern.(2011).EXTENDED.BDRip.AC3.XviD.LPT-SMCO.avi
Format                                   : AVI
Format/Info                              : Audio Video Interleave
Format profile                           : OpenDML
File size                                : 2.48 GiB
Duration                                 : 2h 3mn
Overall bit rate                         : 2 877 Kbps

Video
ID                                       : 0
Format                                   : MPEG-4 Visual
Format profile                           : Advanced Simple@L5
Format settings, BVOP                    : 2
Format settings, QPel                    : No
Format settings, GMC                     : No warppoints
Format settings, Matrix                  : Default (H.263)
Muxing mode                              : Packed bitstream
Codec ID                                 : XVID
Codec ID/Hint                            : XviD
Duration                                 : 2h 3mn
Bit rate                                 : 2 424 Kbps
Width                                    : 720 pixels
Height                                   : 304 pixels
Display aspect ratio                     : 2.35:1
Frame rate                               : 23.976 fps
Original frame rate                      : 25.000 fps
Color space                              : YUV
Chroma subsampling                       : 4:2:0
Bit depth                                : 8 bits
Scan type                                : Progressive
Compression mode                         : Lossy
Bits/(Pixel*Frame)                       : 0.462
Stream size                              : 2.09 GiB (84%)
Writing library                          : XviD 1.2.0.dev47 (UTC 2006-11-01)

Audio
ID                                       : 1
Format                                   : AC-3
Format/Info                              : Audio Coding 3
Mode extension                           : CM (complete main)
Format settings, Endianness              : Big
Codec ID                                 : 2000
Duration                                 : 2h 3mn
Bit rate mode                            : Constant
Bit rate                                 : 448 Kbps
Channel(s)                               : 6 channels
Channel positions                        : Front: L C R, Side: L R, LFE
Sampling rate                            : 48.0 KHz
Bit depth                                : 16 bits
Compression mode                         : Lossy
Stream size                              : 396 MiB (16%)
Alignment                                : Split accross interleaves
Interleave, duration                     : 959 ms (23.00 video frames)




Imagem

Imagem

Imagem

Imagem

Imagem


ed2k: Green.Lantern.(2011).EXTENDED.BDRip.AC3.XviD.LPT-SMCO.[TheRostrum.net].avi  [2.48 Gb]
Imagem
Imagem

Avatar do Utilizador
zekka2772
Utilizador
Utilizador
Mensagens: 329
Registado: 09 dez 2009, 18:46

Re: Green Lantern (2011) *EXTENDED LPT BDRip* - SMCO

Mensagem por zekka2772 » 18 abr 2012, 19:33

ObrigadO


zekka2772 :hi: :portugal:
zekka2772

Responder
  • Tópicos Semelhantes
    Respostas
    Visualizações
    Última Mensagem

Voltar para “Filmes Legendados // Movies With Subtitles Inscription”