Fright Night (2011) *LPT BDRip* - SMCO

Filmes com legendas embutidas PT / BR (Subbed)

Moderador: Moderador

Responder
Avatar do Utilizador
Barefaced
Administrador
Administrador
Mensagens: 36138
Registado: 06 jul 2007, 17:43
Localização: @ Home
Contacto:

Fright Night (2011) *LPT BDRip* - SMCO

Mensagem por Barefaced » 20 mar 2012, 08:24




Sinopse
Charley Brewster é aluno finalista no liceu e tem finalmente tudo o que sempre desejou – um grupo de amigos popular e a rapariga mais bonita da escola como namorada. A sua popularidade é agora tal, que chegou ao ponto de negligenciar o seu melhor amigo Ed. Mas quando Jerry, um estranho misterioso, se muda para a casa do lado, os problemas começam. No inicio ele aparenta ser uma pessoa simpática, mas há nele algo de errado – algo que ninguém, nem mesmo a mãe de Charlie, parece notar. Depois de testemunhar alguma actividade invulgar no bairro, Charley chega a uma conclusão inevitável: Jerry é um vampiro à solta no seu bairro. Incapaz de convencer alguém sobre a sua descoberta, Charley terá de arranjar uma maneira de se livrar do monstro pelas suas próprias mãos.


imdb.com
Fright Night (2011)

Capa
Sinopse:After a new neighbor moved into the house next door, Charley discovers that he is an ancient vampire and goes in search for the help of Peter Vincent, a famous "vampire killer" to save his neighborhood from the creature.
Pontuação:6.4
Duração:106 minutos
Idioma:English
Realizador:Craig Gillespie
Actores:Anton Yelchin, Colin Farrell, Toni Collette, David Tennant, Imogen Poots
  
Fonte:http://www.imdb.com/title/tt1438176
Última Actualização:Segunda Março 12, 2018 09:40


Código: Selecionar todos

General
Complete name                            : Fright.Night.(2011).BRRip.XviD.AC3.LPT-SMCO.avi
Format                                   : AVI
Format/Info                              : Audio Video Interleave
Format profile                           : OpenDML
File size                                : 2.18 GiB
Duration                                 : 1h 45mn
Overall bit rate                         : 2 944 Kbps

Video
ID                                       : 0
Format                                   : MPEG-4 Visual
Format profile                           : Advanced Simple@L5
Format settings, BVOP                    : 2
Format settings, QPel                    : No
Format settings, GMC                     : No warppoints
Format settings, Matrix                  : Default (H.263)
Muxing mode                              : Packed bitstream
Codec ID                                 : XVID
Codec ID/Hint                            : XviD
Duration                                 : 1h 45mn
Bit rate                                 : 2 491 Kbps
Width                                    : 1 024 pixels
Height                                   : 576 pixels
Display aspect ratio                     : 16:9
Frame rate                               : 23.976 fps
Original frame rate                      : 25.000 fps
Color space                              : YUV
Chroma subsampling                       : 4:2:0
Bit depth                                : 8 bits
Scan type                                : Progressive
Compression mode                         : Lossy
Bits/(Pixel*Frame)                       : 0.176
Stream size                              : 1.84 GiB (85%)
Writing library                          : XviD 1.2.0.dev47 (UTC 2006-11-01)

Audio
ID                                       : 1
Format                                   : AC-3
Format/Info                              : Audio Coding 3
Mode extension                           : CM (complete main)
Codec ID                                 : 2000
Duration                                 : 1h 45mn
Bit rate mode                            : Constant
Bit rate                                 : 448 Kbps
Channel(s)                               : 6 channels
Channel positions                        : Front: L C R, Side: L R, LFE
Sampling rate                            : 48.0 KHz
Bit depth                                : 16 bits
Compression mode                         : Lossy
Stream size                              : 340 MiB (15%)
Alignment                                : Split accross interleaves
Interleave, duration                     : 959 ms (23.00 video frames)















ed2k: Fright.Night.(2011).BRRip.XviD.AC3.LPT-SMCO.avi  [2.18 Gb]
Imagem

Responder

Voltar para “Filmes Legendados // Movies With Subtitles Inscription”