Mr. Popper's Penguins (2011) *LPT BDRip* - SMCO

Filmes com legendas embutidas PT / BR (Subbed)

Moderador: Moderador

Responder
Avatar do Utilizador
Barefaced
Administrador
Administrador
Mensagens: 36117
Registado: 06 jul 2007, 17:43
Localização: @ Home
Contacto:

Mr. Popper's Penguins (2011) *LPT BDRip* - SMCO

Mensagem por Barefaced » 23 fev 2012, 18:36




Sinopse
O Sr. Popper (Jim Carrey) é um agente imobiliário cínico e solitário cujo sucesso lhe custou o casamento e o respeito das pessoas mais importantes da sua vida. Um dia recebe, no seu luxuoso apartamento em Manhatan, um presente invulgar do seu recém-falecido pai: seis pinguins vivos. Assim, de um momento para o outro, aqueles animais tomam conta de tudo à sua volta e a sua vida ordenada ao milímetro fica de pernas para o ar. Porém, apesar de adorarem o frio, as seis adoráveis criaturas são capazes de derreter qualquer coração de gelo que encontram pela frente e o do Sr. Popper não será a excepção.


imdb.com
Mr. Popper's Penguins (2011)

Capa
Sinopse:The life of a businessman begins to change after he inherits six penguins, and as he transforms his apartment into a winter wonderland, his professional side starts to unravel.
Pontuação:6.0
Duração:94 minutos
Idioma:English
Realizador:Mark Waters
Actores:Jim Carrey, Carla Gugino, Angela Lansbury, Ophelia Lovibond, Madeline Carroll
  
Fonte:http://www.imdb.com/title/tt1396218
Última Actualização:Segunda Março 12, 2018 11:14


Código: Selecionar todos

General
Complete name                            : Mr.Poppers.Penguins.(2011).BRRip.XviD.AC3.LPT-SMCO.avi
Format                                   : AVI
Format/Info                              : Audio Video Interleave
Format profile                           : OpenDML
File size                                : 1.95 GiB
Duration                                 : 1h 34mn
Overall bit rate                         : 2 965 Kbps

Video
ID                                       : 0
Format                                   : MPEG-4 Visual
Format profile                           : Advanced Simple@L5
Format settings, BVOP                    : 2
Format settings, QPel                    : No
Format settings, GMC                     : No warppoints
Format settings, Matrix                  : Default (H.263)
Muxing mode                              : Packed bitstream
Codec ID                                 : XVID
Codec ID/Hint                            : XviD
Duration                                 : 1h 34mn
Bit rate                                 : 2 512 Kbps
Width                                    : 1 024 pixels
Height                                   : 554 pixels
Display aspect ratio                     : 16:9
Frame rate                               : 23.976 fps
Original frame rate                      : 25.000 fps
Color space                              : YUV
Chroma subsampling                       : 4:2:0
Bit depth                                : 8 bits
Scan type                                : Progressive
Compression mode                         : Lossy
Bits/(Pixel*Frame)                       : 0.185
Stream size                              : 1.66 GiB (85%)
Writing library                          : XviD 1.2.0.dev47 (UTC 2006-11-01)

Audio
ID                                       : 1
Format                                   : AC-3
Format/Info                              : Audio Coding 3
Mode extension                           : CM (complete main)
Codec ID                                 : 2000
Duration                                 : 1h 34mn
Bit rate mode                            : Constant
Bit rate                                 : 448 Kbps
Channel(s)                               : 6 channels
Channel positions                        : Front: L C R, Side: L R, LFE
Sampling rate                            : 48.0 KHz
Bit depth                                : 16 bits
Compression mode                         : Lossy
Stream size                              : 302 MiB (15%)
Alignment                                : Split accross interleaves
Interleave, duration                     : 959 ms (23.00 video frames)



















ed2k: Mr.Poppers.Penguins.(2011).BRRip.XviD.AC3.LPT-SMCO.[TheRostrum.net].avi  [1.95 Gb]
Imagem

Responder

Voltar para “Filmes Legendados // Movies With Subtitles Inscription”