Johnny English Reborn (2011) *LPT DVDRip* - SMCO

Filmes com legendas embutidas PT / BR (Subbed)

Moderador: Moderador

Responder
Avatar do Utilizador
Barefaced
Administrador
Administrador
Mensagens: 37275
Registado: 06 jul 2007, 17:43
Localização: @ Home
Contacto:

Johnny English Reborn (2011) *LPT DVDRip* - SMCO

Mensagem por Barefaced » 23 fev 2012, 18:23




Sinopse
Desde que o agente de topo do MI7 desapareceu do mapa, ele esteve a aprumar as suas capacidades únicas numa remota região da Ásia. Mas quando os seus superiores da agência são informados de uma tentativa de assassinato do primeiro-ministro chinês, eles têm de recuperar o pouco ortodoxo agente. Agora que o mundo precisa dele outra vez, Johnny English regressa à acção. Sem margem para falhas, ele terá de utilizar os mais recentes equipamentos de alta tecnologia para desmascarar uma conspiração que envolve o KGB, a CIA e até o MI7. Com poucos dias até uma conferência de líderes de estado, um homem deve usar todos os truques que tem na manga para nos proteger. Para Johnny English o desastre pode ser uma opção, mas o fracasso nunca.


imdb.com
Johnny English Reborn (2011)

Capa
Sinopse:Johnny English goes up against international assassins hunting down the Chinese premier.
Pontuação:6.3
Duração:101 minutos
Idioma:English, Mandarin, Swiss German, Cantonese, Russian
Realizador:Oliver Parker
Actores:Roger Barclay, Eric Carte, Rowan Atkinson, Togo Igawa, Eleanor Wyld
  
Fonte:http://www.imdb.com/title/tt1634122
Última Actualização:Segunda Março 12, 2018 09:38


Código: Selecionar todos

General
Complete name                            : Johnny.English.Reborn.(2011).DVDRip XviD.LPT-SMCO.avi
Format                                   : AVI
Format/Info                              : Audio Video Interleave
File size                                : 1.52 GiB
Duration                                 : 1h 37mn
Overall bit rate                         : 2 243 Kbps
Writing application                      : VirtualDubMod 1.5.10.2 (build 2540/release)
Writing library                          : VirtualDubMod build 2540/release

Video
ID                                       : 0
Format                                   : MPEG-4 Visual
Format profile                           : Advanced Simple@L5
Format settings, BVOP                    : 2
Format settings, QPel                    : No
Format settings, GMC                     : No warppoints
Format settings, Matrix                  : Default (H.263)
Muxing mode                              : Packed bitstream
Codec ID                                 : XVID
Codec ID/Hint                            : XviD
Duration                                 : 1h 37mn
Bit rate                                 : 2 042 Kbps
Width                                    : 720 pixels
Height                                   : 304 pixels
Display aspect ratio                     : 2.35:1
Frame rate                               : 25.000 fps
Color space                              : YUV
Chroma subsampling                       : 4:2:0
Bit depth                                : 8 bits
Scan type                                : Progressive
Compression mode                         : Lossy
Bits/(Pixel*Frame)                       : 0.373
Stream size                              : 1.38 GiB (91%)
Writing library                          : XviD 1.2.0.dev47 (UTC 2006-11-01)

Audio
ID                                       : 1
Format                                   : MPEG Audio
Format version                           : Version 1
Format profile                           : Layer 3
Mode                                     : Joint stereo
Mode extension                           : MS Stereo
Codec ID                                 : 55
Codec ID/Hint                            : MP3
Duration                                 : 1h 37mn
Bit rate mode                            : Constant
Bit rate                                 : 192 Kbps
Channel(s)                               : 2 channels
Sampling rate                            : 44.1 KHz
Compression mode                         : Lossy
Stream size                              : 133 MiB (9%)
Alignment                                : Split accross interleaves
Interleave, duration                     : 40 ms (1.00 video frame)
Interleave, preload duration             : 500 ms
Writing library                          : LAME3.97




Imagem

Imagem

Imagem

Imagem

Imagem


ed2k: Johnny.English.Reborn.(2011).DVDRip XviD.LPT-SMCO.[TheRostrum.net].avi  [1.52 Gb]
Imagem
Imagem

Responder

Voltar para “Filmes Legendados // Movies With Subtitles Inscription”