Moneyball (2011) *LPT BDRip* - SMCO

Filmes com legendas embutidas PT / BR (Subbed)

Moderador: Moderador

Responder
Avatar do Utilizador
Barefaced
Administrador
Administrador
Mensagens: 39099
Registado: 06 jul 2007, 17:43
Localização: @ Home
Contacto:

Moneyball (2011) *LPT BDRip* - SMCO

Mensagem por Barefaced » 23 fev 2012, 18:07




Sinopse
A história de Billy Beane, Director-Geral da equipa norte-americana de basebol Oakland Athletics, e da sua bem sucedida tentativa de reunir uma equipa de basebol com um orçamento diminuto, através da utilização da análise computorizada para contratar os jogadores.


imdb.com
Moneyball (2011)

Capa
Sinopse:Oakland A's general manager Billy Beane's successful attempt to assemble a baseball team on a lean budget by employing computer-generated analysis to acquire new players.
Pontuação:7.6
Duração:133 minutos
Idioma:English
Realizador:Bennett Miller
Actores:Brad Pitt, Jonah Hill, Philip Seymour Hoffman, Robin Wright, Chris Pratt
  
Fonte:http://www.imdb.com/title/tt1210166
Última Actualização:Segunda Março 12, 2018 07:39


Código: Selecionar todos

General
Complete name                            : Moneyball.(2011).BRRip.XviD.AC3.LPT-SMCO.avi
Format                                   : AVI
Format/Info                              : Audio Video Interleave
Format profile                           : OpenDML
File size                                : 2.14 GiB
Duration                                 : 2h 7mn
Overall bit rate                         : 2 413 Kbps

Video
ID                                       : 0
Format                                   : MPEG-4 Visual
Format profile                           : Advanced Simple@L5
Format settings, BVOP                    : 2
Format settings, QPel                    : No
Format settings, GMC                     : No warppoints
Format settings, Matrix                  : Default (H.263)
Muxing mode                              : Packed bitstream
Codec ID                                 : XVID
Codec ID/Hint                            : XviD
Duration                                 : 2h 7mn
Bit rate                                 : 1 960 Kbps
Width                                    : 720 pixels
Height                                   : 384 pixels
Display aspect ratio                     : 1.875
Frame rate                               : 23.976 fps
Original frame rate                      : 25.000 fps
Color space                              : YUV
Chroma subsampling                       : 4:2:0
Bit depth                                : 8 bits
Scan type                                : Progressive
Compression mode                         : Lossy
Bits/(Pixel*Frame)                       : 0.296
Stream size                              : 1.74 GiB (81%)
Writing library                          : XviD 1.2.0.dev47 (UTC 2006-11-01)

Audio
ID                                       : 1
Format                                   : AC-3
Format/Info                              : Audio Coding 3
Mode extension                           : CM (complete main)
Codec ID                                 : 2000
Duration                                 : 2h 7mn
Bit rate mode                            : Constant
Bit rate                                 : 448 Kbps
Channel(s)                               : 6 channels
Channel positions                        : Front: L C R, Side: L R, LFE
Sampling rate                            : 48.0 KHz
Bit depth                                : 16 bits
Compression mode                         : Lossy
Stream size                              : 408 MiB (19%)
Alignment                                : Split accross interleaves
Interleave, duration                     : 959 ms (23.00 video frames)















ed2k: Moneyball.(2011).BRRip.XviD.AC3.LPT-SMCO.[TheRostrum.net].avi  [2.14 Gb]
Imagem
Imagem

Responder
  • Tópicos Semelhantes
    Respostas
    Visualizações
    Última Mensagem

Voltar para “Filmes Legendados // Movies With Subtitles Inscription”