The Way Back (2010) *LPT BDRip* - SMCO

Filmes com legendas embutidas PT / BR (Subbed)

Moderador: Moderador

Responder
Avatar do Utilizador
Barefaced
Administrador
Administrador
Mensagens: 39099
Registado: 06 jul 2007, 17:43
Localização: @ Home
Contacto:

The Way Back (2010) *LPT BDRip* - SMCO

Mensagem por Barefaced » 28 fev 2012, 23:47




Sinopse
Uma aventura que relata a fuga de um pequeno grupo de prisioneiros de várias nacionalidades de um gulag na Sibéria em 1940, bem como a sua jornada de vida ao longo de milhares de quilómetros por cinco países hostis.


imdb.com
The Way Back (2010)

Capa
Sinopse:Siberian gulag escapees travel 4,000 miles by foot to freedom in India.
Pontuação:7.3
Duração:133 minutos
Idioma:English, Russian, Polish
Realizador:Peter Weir
Actores:Dragos Bucur, Colin Farrell, Ed Harris, Alexandru Potocean, Saoirse Ronan
  
Fonte:http://www.imdb.com/title/tt1023114
Última Actualização:Segunda Março 12, 2018 11:11


Código: Selecionar todos

General
Complete name                            : The.Way.Back.(2010).BRRip.XviD.AC3.LPT-SMCO.avi
Format                                   : AVI
Format/Info                              : Audio Video Interleave
Format profile                           : OpenDML
File size                                : 2.76 GiB
Duration                                 : 2h 5mn
Overall bit rate                         : 3 144 Kbps

Video
ID                                       : 0
Format                                   : MPEG-4 Visual
Format profile                           : Advanced Simple@L5
Format settings, BVOP                    : 2
Format settings, QPel                    : No
Format settings, GMC                     : No warppoints
Format settings, Matrix                  : Default (H.263)
Muxing mode                              : Packed bitstream
Codec ID                                 : XVID
Codec ID/Hint                            : XviD
Duration                                 : 2h 5mn
Bit rate                                 : 2 691 Kbps
Width                                    : 720 pixels
Height                                   : 304 pixels
Display aspect ratio                     : 2.35:1
Frame rate                               : 23.976 fps
Original frame rate                      : 25.000 fps
Color space                              : YUV
Chroma subsampling                       : 4:2:0
Bit depth                                : 8 bits
Scan type                                : Progressive
Compression mode                         : Lossy
Bits/(Pixel*Frame)                       : 0.513
Stream size                              : 2.37 GiB (86%)
Writing library                          : XviD 1.2.0.dev47 (UTC 2006-11-01)

Audio
ID                                       : 1
Format                                   : AC-3
Format/Info                              : Audio Coding 3
Mode extension                           : CM (complete main)
Codec ID                                 : 2000
Duration                                 : 2h 5mn
Bit rate mode                            : Constant
Bit rate                                 : 448 Kbps
Channel(s)                               : 6 channels
Channel positions                        : Front: L C R, Side: L R, LFE
Sampling rate                            : 48.0 KHz
Bit depth                                : 16 bits
Compression mode                         : Lossy
Stream size                              : 403 MiB (14%)
Alignment                                : Split accross interleaves
Interleave, duration                     : 959 ms (23.00 video frames)



















ed2k: The.Way.Back.(2010).BRRip.XviD.AC3.LPT-SMCO.avi  [2.76 Gb]
Imagem
Imagem

Responder
  • Tópicos Semelhantes
    Respostas
    Visualizações
    Última Mensagem

Voltar para “Filmes Legendados // Movies With Subtitles Inscription”