Horrible Bosses (2011) *LPT EXTENDED BDRip* - SMCO

Filmes com legendas embutidas PT / BR (Subbed)

Moderador: Moderador

Responder
Avatar do Utilizador
Barefaced
Administrador
Administrador
Mensagens: 37275
Registado: 06 jul 2007, 17:43
Localização: @ Home
Contacto:

Horrible Bosses (2011) *LPT EXTENDED BDRip* - SMCO

Mensagem por Barefaced » 29 fev 2012, 00:11




Sinopse
Para Nick, Kurt e Dale, a única coisa que lhes tornaria os dias no trabalho mais toleráveis, seria verem os seus chefes transformados em poeira. Despedirem-se não é uma opção, e, resultado de umas bebidas a mais e de conselhos de um ex-prisioneiro, os três amigos começam a conceber um plano para se livrarem dos seus chefes... para sempre.


imdb.com
Horrible Bosses (2011)

Capa
Sinopse:Three friends conspire to murder their awful bosses when they realize they are standing in the way of their happiness.
Pontuação:6.9
Duração:106 minutos
Idioma:English
Realizador:Seth Gordon
Actores:Jason Bateman, Steve Wiebe, Kevin Spacey, Charlie Day, Lindsay Sloane
  
Fonte:http://www.imdb.com/title/tt1499658
Última Actualização:Segunda Março 12, 2018 01:37


Código: Selecionar todos

General
Complete name                            : Horrible.Bosses.(2011).EXTENDED.BRRip.XviD.AC3.LPT-SMCO.avi
Format                                   : AVI
Format/Info                              : Audio Video Interleave
Format profile                           : OpenDML
File size                                : 2.19 GiB
Duration                                 : 1h 45mn
Overall bit rate                         : 2 969 Kbps

Video
ID                                       : 0
Format                                   : MPEG-4 Visual
Format profile                           : Advanced Simple@L5
Format settings, BVOP                    : 2
Format settings, QPel                    : No
Format settings, GMC                     : No warppoints
Format settings, Matrix                  : Default (H.263)
Muxing mode                              : Packed bitstream
Codec ID                                 : XVID
Codec ID/Hint                            : XviD
Duration                                 : 1h 45mn
Bit rate                                 : 2 516 Kbps
Width                                    : 1 024 pixels
Height                                   : 422 pixels
Display aspect ratio                     : 2.40:1
Frame rate                               : 23.976 fps
Original frame rate                      : 25.000 fps
Color space                              : YUV
Chroma subsampling                       : 4:2:0
Bit depth                                : 8 bits
Scan type                                : Progressive
Compression mode                         : Lossy
Bits/(Pixel*Frame)                       : 0.243
Stream size                              : 1.86 GiB (85%)
Writing library                          : XviD 1.2.0.dev47 (UTC 2006-11-01)

Audio
ID                                       : 1
Format                                   : AC-3
Format/Info                              : Audio Coding 3
Mode extension                           : CM (complete main)
Codec ID                                 : 2000
Duration                                 : 1h 45mn
Bit rate mode                            : Constant
Bit rate                                 : 448 Kbps
Channel(s)                               : 6 channels
Channel positions                        : Front: L C R, Side: L R, LFE
Sampling rate                            : 48.0 KHz
Bit depth                                : 16 bits
Compression mode                         : Lossy
Stream size                              : 338 MiB (15%)
Alignment                                : Split accross interleaves
Interleave, duration                     : 959 ms (23.00 video frames)















ed2k: Horrible.Bosses.(2011).EXTENDED.BRRip.XviD.AC3.LPT-SMCO.avi  [2.19 Gb]
Imagem
Imagem

Responder

Voltar para “Filmes Legendados // Movies With Subtitles Inscription”