Final Destination 5 (2011) *LPT BDRip* - SMCO

Filmes com legendas embutidas PT / BR (Subbed)

Moderador: Moderador

Responder
Avatar do Utilizador
Barefaced
Administrador
Administrador
Mensagens: 36148
Registado: 06 jul 2007, 17:43
Localização: @ Home
Contacto:

Final Destination 5 (2011) *LPT BDRip* - SMCO

Mensagem por Barefaced » 20 mar 2012, 07:36




Sinopse
No quinto episódio desta saga, a Morte está tão omnipresente como sempre e a sua fúria é despoletada pela premonição de um homem que salva um grupo de colegas do trabalho de um aterrorizador acidente numa ponte suspensa. Mas este grupo de almas inocentes nunca devia ter sobrevivido e, numa assustadora corrida contra o tempo, o grupo condenado tenta descobrir uma forma de fugir à agenda sinistra da Morte. Porém, a Morte não gosta de ser enganada...


imdb.com
Final Destination 5 (2011)

Capa
Sinopse:Survivors of a suspension-bridge collapse learn there's no way you can cheat Death.
Pontuação:5.9
Duração:92 minutos
Idioma:English, Cantonese
Realizador:Steven Quale
Actores:Nicholas D'Agosto, Emma Bell, Miles Fisher, Ellen Wroe, Jacqueline MacInnes Wood
  
Fonte:http://www.imdb.com/title/tt1622979
Última Actualização:Segunda Março 12, 2018 10:51


Código: Selecionar todos

General
Complete name                            : Final.Destination.5.(2011).BRRip.XviD.AC3.LPT-SMCO.avi
Format                                   : AVI
Format/Info                              : Audio Video Interleave
Format profile                           : OpenDML
File size                                : 1.87 GiB
Duration                                 : 1h 31mn
Overall bit rate                         : 2 923 Kbps

Video
ID                                       : 0
Format                                   : MPEG-4 Visual
Format profile                           : Advanced Simple@L5
Format settings, BVOP                    : 2
Format settings, QPel                    : No
Format settings, GMC                     : No warppoints
Format settings, Matrix                  : Default (H.263)
Muxing mode                              : Packed bitstream
Codec ID                                 : XVID
Codec ID/Hint                            : XviD
Duration                                 : 1h 31mn
Bit rate                                 : 2 470 Kbps
Width                                    : 720 pixels
Height                                   : 304 pixels
Display aspect ratio                     : 2.35:1
Frame rate                               : 23.976 fps
Original frame rate                      : 25.000 fps
Color space                              : YUV
Chroma subsampling                       : 4:2:0
Bit depth                                : 8 bits
Scan type                                : Progressive
Compression mode                         : Lossy
Bits/(Pixel*Frame)                       : 0.471
Stream size                              : 1.58 GiB (84%)
Writing library                          : XviD 1.2.0.dev47 (UTC 2006-11-01)

Audio
ID                                       : 1
Format                                   : AC-3
Format/Info                              : Audio Coding 3
Mode extension                           : CM (complete main)
Codec ID                                 : 2000
Duration                                 : 1h 31mn
Bit rate mode                            : Constant
Bit rate                                 : 448 Kbps
Channel(s)                               : 6 channels
Channel positions                        : Front: L C R, Side: L R, LFE
Sampling rate                            : 48.0 KHz
Bit depth                                : 16 bits
Compression mode                         : Lossy
Stream size                              : 294 MiB (15%)
Alignment                                : Split accross interleaves
Interleave, duration                     : 959 ms (23.00 video frames)



















ed2k: Final.Destination.5.(2011).BRRip.XviD.AC3.LPT-SMCO.avi  [1.87 Gb]
Imagem

Responder

Voltar para “Filmes Legendados // Movies With Subtitles Inscription”