Drive (2011) *LPT BDRip* - SMCO

Filmes com legendas embutidas PT / BR (Subbed)

Moderador: Moderador

Responder
Avatar do Utilizador
Barefaced
Administrador
Administrador
Mensagens: 36716
Registado: 06 jul 2007, 17:43
Localização: @ Home
Contacto:

Drive (2011) *LPT BDRip* - SMCO

Mensagem por Barefaced » 06 jun 2012, 05:48




Sinopse
Um duplo de cinema especializado em condução, utiliza as suas habilidades ao volante participando em assaltos conduzindo os assaltantes em fuga, mas um dos serviços vai deixá-lo com a cabeça a prémio.


imdb.com
Drive (2011)

Capa
Sinopse:A mysterious Hollywood stuntman and mechanic moonlights as a getaway driver and finds himself in trouble when he helps out his neighbor.
Pontuação:7.8
Duração:100 minutos
Idioma:English, Spanish
Realizador:Nicolas Winding Refn
Actores:Ryan Gosling, Carey Mulligan, Bryan Cranston, Albert Brooks, Oscar Isaac
  
Fonte:http://www.imdb.com/title/tt0780504
Última Actualização:Segunda Março 12, 2018 09:20


Código: Selecionar todos

General
Complete name                            : Drive.(2011).BRRip.XviD.AC3.LPT-SMCO.avi
Format                                   : AVI
Format/Info                              : Audio Video Interleave
Format profile                           : OpenDML
File size                                : 2.00 GiB
Duration                                 : 1h 40mn
Overall bit rate                         : 2 834 Kbps

Video
ID                                       : 0
Format                                   : MPEG-4 Visual
Format profile                           : Advanced Simple@L5
Format settings, BVOP                    : 2
Format settings, QPel                    : No
Format settings, GMC                     : No warppoints
Format settings, Matrix                  : Default (H.263)
Muxing mode                              : Packed bitstream
Codec ID                                 : XVID
Codec ID/Hint                            : XviD
Duration                                 : 1h 40mn
Bit rate                                 : 2 382 Kbps
Width                                    : 1 024 pixels
Height                                   : 432 pixels
Display aspect ratio                     : 2.35:1
Frame rate                               : 23.976 fps
Original frame rate                      : 25.000 fps
Color space                              : YUV
Chroma subsampling                       : 4:2:0
Bit depth                                : 8 bits
Scan type                                : Progressive
Compression mode                         : Lossy
Bits/(Pixel*Frame)                       : 0.225
Stream size                              : 1.68 GiB (84%)
Writing library                          : XviD 1.2.0.dev47 (UTC 2006-11-01)

Audio
ID                                       : 1
Format                                   : AC-3
Format/Info                              : Audio Coding 3
Mode extension                           : CM (complete main)
Codec ID                                 : 2000
Duration                                 : 1h 40mn
Bit rate mode                            : Constant
Bit rate                                 : 448 Kbps
Channel(s)                               : 6 channels
Channel positions                        : Front: L C R, Side: L R, LFE
Sampling rate                            : 48.0 KHz
Bit depth                                : 16 bits
Compression mode                         : Lossy
Delay relative to video                  : 25ms
Stream size                              : 323 MiB (16%)
Alignment                                : Split accross interleaves
Interleave, duration                     : 959 ms (23.00 video frames)













ed2k: Drive.(2011).BRRip.XviD.AC3.LPT-SMCO.avi  [2.00 Gb]
Imagem
Imagem

pixie
eMuleCoop
eMuleCoop
Mensagens: 435
Registado: 14 out 2011, 23:36

Re: Drive (2011) *LPT BDRip* - SMCO

Mensagem por pixie » 06 jun 2012, 07:54

Obrigado

Responder

Voltar para “Filmes Legendados // Movies With Subtitles Inscription”