Crazy, Stupid, Love. (2011) *LPT BDRip* - SMCO

Filmes com legendas embutidas PT / BR (Subbed)

Moderador: Moderador

Responder
Avatar do Utilizador
Barefaced
Administrador
Administrador
Mensagens: 36117
Registado: 06 jul 2007, 17:43
Localização: @ Home
Contacto:

Crazy, Stupid, Love. (2011) *LPT BDRip* - SMCO

Mensagem por Barefaced » 13 fev 2012, 22:57




Sinopse
Cal Weaver está a viver o sonho americano: tem um bom emprego, uma boa casa e filhos excelentes. Cal tem a surpresa da vida dele quando a esposa, Emily, diz querer o divórcio. A sua vida perfeita desmorona-se rapidamente. Cal destaca-se no universo dos solteiros, pois não sai com ninguém há décadas. Passando as noites deprimido num bar local, Cal é acolhido sob a asa de um jovem sedutor professional, Jacob Palmer. Para tentar ajudar Carl voltar a viver, Jacob abre-lhe os olhos para as diversas opções que tem diante dele: mulheres sedutoras, bebidas masculinas e estilo. Os dois percebem que não são os únicos à procura de amor nos sítios errados: o filho de 13 anos de Cal está apaixonado pela sua ama de 17 anos, Jessica, que, por sua vez, tem uma paixoneta por Cal. Entretanto, Jacob, que devia ter todas as respostas, não sabe o que fazer quando se apaixona por Hannah, uma jovem capaz de resistir aos seus encantos, mas que arrisca nele. E apesar da renovação de Cal, o coração não muda e leva-o sempre ao ponto de partida.


imdb.com
Crazy, Stupid, Love. (2011)

Capa
Sinopse:A middle-aged husband's life changes dramatically when his wife asks him for a divorce. He seeks to rediscover his manhood with the help of a newfound friend, Jacob, learning to pick up girls at bars.
Pontuação:7.4
Duração:118 minutos
Idioma:English
Realizador:Glenn Ficarra, John Requa
Actores:Steve Carell, Ryan Gosling, Julianne Moore, Emma Stone, Analeigh Tipton
  
Fonte:http://www.imdb.com/title/tt1570728
Última Actualização:Segunda Março 12, 2018 10:12


Código: Selecionar todos

General
Complete name                            : Crazy.Stupid.Love.(2011).BRRip.XviD.AC3.LPT-SMCO.avi
Format                                   : AVI
Format/Info                              : Audio Video Interleave
Format profile                           : OpenDML
File size                                : 2.37 GiB
Duration                                 : 1h 58mn
Overall bit rate                         : 2 874 Kbps

Video
ID                                       : 0
Format                                   : MPEG-4 Visual
Format profile                           : Advanced Simple@L5
Format settings, BVOP                    : 2
Format settings, QPel                    : No
Format settings, GMC                     : No warppoints
Format settings, Matrix                  : Default (H.263)
Muxing mode                              : Packed bitstream
Codec ID                                 : XVID
Codec ID/Hint                            : XviD
Duration                                 : 1h 58mn
Bit rate                                 : 2 421 Kbps
Width                                    : 1 024 pixels
Height                                   : 428 pixels
Display aspect ratio                     : 2.40:1
Frame rate                               : 23.976 fps
Original frame rate                      : 25.000 fps
Color space                              : YUV
Chroma subsampling                       : 4:2:0
Bit depth                                : 8 bits
Scan type                                : Progressive
Compression mode                         : Lossy
Bits/(Pixel*Frame)                       : 0.230
Stream size                              : 2.00 GiB (84%)
Writing library                          : XviD 1.2.0.dev47 (UTC 2006-11-01)

Audio
ID                                       : 1
Format                                   : AC-3
Format/Info                              : Audio Coding 3
Mode extension                           : CM (complete main)
Codec ID                                 : 2000
Duration                                 : 1h 58mn
Bit rate mode                            : Constant
Bit rate                                 : 448 Kbps
Channel(s)                               : 6 channels
Channel positions                        : Front: L C R, Side: L R, LFE
Sampling rate                            : 48.0 KHz
Bit depth                                : 16 bits
Compression mode                         : Lossy
Stream size                              : 378 MiB (16%)
Alignment                                : Split accross interleaves
Interleave, duration                     : 959 ms (23.00 video frames)















ed2k: Crazy.Stupid.Love.(2011).BRRip.XviD.AC3.LPT-SMCO.avi  [2.37 Gb]
Imagem

Responder

Voltar para “Filmes Legendados // Movies With Subtitles Inscription”