In Time (2011) *LPT DVDRip* - SMCO

Filmes com legendas embutidas PT / BR (Subbed)

Moderador: Moderador

Responder
Avatar do Utilizador
Barefaced
Administrador
Administrador
Mensagens: 39099
Registado: 06 jul 2007, 17:43
Localização: @ Home
Contacto:

In Time (2011) *LPT DVDRip* - SMCO

Mensagem por Barefaced » 12 fev 2012, 00:11




Sinopse
O tempo tornou-se a maior moeda de todas. Os cientistas conseguiram descobrir uma forma de destruir o gene do envelhecimento. Então, quando uma pessoa chega aos 25 anos, para de envelhecer, mas possui apenas mais um ano de vida, a não ser que tenha dinheiro para pagar pelo tempo extra. Na busca por poder e tempo de vida, Will Salas (Justin Timberlake) é acusado injustamente de homicídio e vê-se obrigado a sequestrar Sylvia Weis (Amanda Seyfried) uma bela jovem para conseguir ganhar mais tempo e provar a sua inocência.


imdb.com
In Time (2011)

Capa
Sinopse:In a future where people stop aging at 25, but are engineered to live only one more year, having the means to buy your way out of the situation is a shot at immortal youth. Here, Will Salas finds himself accused of murder and on the run with a hostage - a connection that becomes an important part of the way against the system.
Pontuação:6.7
Duração:109 minutos
Idioma:English
Realizador:Andrew Niccol
Actores:Justin Timberlake, Olivia Wilde, Shyloh Oostwald, Johnny Galecki, Colin McGurk
  
Fonte:http://www.imdb.com/title/tt1637688
Última Actualização:Segunda Março 12, 2018 07:25


Código: Selecionar todos

General
Complete name                            : In.Time.(2011).DVDRip.XviD.LPT-SMCO.avi
Format                                   : AVI
Format/Info                              : Audio Video Interleave
Format profile                           : OpenDML
File size                                : 1.49 GiB
Duration                                 : 1h 44mn
Overall bit rate                         : 2 034 Kbps

Video
ID                                       : 0
Format                                   : MPEG-4 Visual
Format profile                           : Advanced Simple@L5
Format settings, BVOP                    : 2
Format settings, QPel                    : No
Format settings, GMC                     : No warppoints
Format settings, Matrix                  : Default (H.263)
Muxing mode                              : Packed bitstream
Codec ID                                 : XVID
Codec ID/Hint                            : XviD
Duration                                 : 1h 44mn
Bit rate                                 : 1 581 Kbps
Width                                    : 640 pixels
Height                                   : 272 pixels
Display aspect ratio                     : 2.35:1
Frame rate                               : 23.976 fps
Original frame rate                      : 25.000 fps
Color space                              : YUV
Chroma subsampling                       : 4:2:0
Bit depth                                : 8 bits
Scan type                                : Progressive
Compression mode                         : Lossy
Bits/(Pixel*Frame)                       : 0.379
Stream size                              : 1.16 GiB (78%)
Writing library                          : XviD 1.2.0.dev47 (UTC 2006-11-01)

Audio
ID                                       : 1
Format                                   : AC-3
Format/Info                              : Audio Coding 3
Mode extension                           : CM (complete main)
Codec ID                                 : 2000
Duration                                 : 1h 44mn
Bit rate mode                            : Constant
Bit rate                                 : 448 Kbps
Channel(s)                               : 6 channels
Channel positions                        : Front: L C R, Side: L R, LFE
Sampling rate                            : 48.0 KHz
Bit depth                                : 16 bits
Compression mode                         : Lossy
Delay relative to video                  : 30ms
Stream size                              : 336 MiB (22%)
Alignment                                : Split accross interleaves
Interleave, duration                     : 959 ms (23.00 video frames)




Imagem

Imagem

Imagem

Imagem

Imagem

Imagem

Imagem


ed2k: In.Time.(2011).DVDRip.XviD.LPT-SMCO.avi  [1.49 Gb]
Imagem
Imagem

Responder
  • Tópicos Semelhantes
    Respostas
    Visualizações
    Última Mensagem

Voltar para “Filmes Legendados // Movies With Subtitles Inscription”