Captain America: The First Avenger (2011) *LPT BDRip* - SMCO

Filmes com legendas embutidas PT / BR (Subbed)

Moderador: Moderador

Responder
Avatar do Utilizador
Barefaced
Administrador
Administrador
Mensagens: 36117
Registado: 06 jul 2007, 17:43
Localização: @ Home
Contacto:

Captain America: The First Avenger (2011) *LPT BDRip* - SMCO

Mensagem por Barefaced » 06 jun 2012, 05:50




Sinopse
Nascido durante a Grande Depressão, Steve Rogers foi um menino franzino numa família pobre. Horrorizado com a ascensão Nazista na Europa, o jovem decide partir para entrar para o exército. Mas, devido ter uma saúde frágil, ele é rejeitado. Mas após escutar os apelos honestos do jovem, o General Chester Phillips oferece a Rogers a oportunidade de participar da "Operação: Renascimento". Depois de semanas de testes ele recebe o soro do super-soldado e é bombardeado por raios-vita. Steve Rogers aparece então com o corpo mais perfeito que um ser humano pode ter e é submetido a intensos treinos físicos e táticos. Meses depois ele recebe a sua primeira missão como o Capitão América e, com o seu escudo indestrutível, ele parte para combater o mal sozinho e como o líder dos "Vingadores".


imdb.com
Captain America: The First Avenger (2011)

Capa
Sinopse:Steve Rogers, a rejected military soldier transforms into Captain America after taking a dose of a "Super-Soldier serum". But being Captain America comes at a price as he attempts to take down a war monger and a terrorist organization.
Pontuação:6.9
Duração:124 minutos
Idioma:English, Norwegian, French
Realizador:Joe Johnston
Actores:Chris Evans, Hayley Atwell, Sebastian Stan, Tommy Lee Jones, Hugo Weaving
  
Fonte:http://www.imdb.com/title/tt0458339
Última Actualização:Segunda Março 12, 2018 08:00


Código: Selecionar todos

General
Complete name                            : Captain.America.The.First.Avenger.(2011).BRRip.XviD.AC3.LPT-SMCO.avi
Format                                   : AVI
Format/Info                              : Audio Video Interleave
Format profile                           : OpenDML
File size                                : 2.44 GiB
Duration                                 : 1h 57mn
Overall bit rate                         : 2 970 Kbps

Video
ID                                       : 0
Format                                   : MPEG-4 Visual
Format profile                           : Advanced Simple@L5
Format settings, BVOP                    : 2
Format settings, QPel                    : No
Format settings, GMC                     : No warppoints
Format settings, Matrix                  : Default (H.263)
Muxing mode                              : Packed bitstream
Codec ID                                 : XVID
Codec ID/Hint                            : XviD
Duration                                 : 1h 57mn
Bit rate                                 : 2 518 Kbps
Width                                    : 1 024 pixels
Height                                   : 428 pixels
Display aspect ratio                     : 2.40:1
Frame rate                               : 23.976 fps
Original frame rate                      : 25.000 fps
Color space                              : YUV
Chroma subsampling                       : 4:2:0
Bit depth                                : 8 bits
Scan type                                : Progressive
Compression mode                         : Lossy
Bits/(Pixel*Frame)                       : 0.240
Stream size                              : 2.07 GiB (85%)
Writing library                          : XviD 1.2.0.dev47 (UTC 2006-11-01)

Audio
ID                                       : 1
Format                                   : AC-3
Format/Info                              : Audio Coding 3
Mode extension                           : CM (complete main)
Codec ID                                 : 2000
Duration                                 : 1h 57mn
Bit rate mode                            : Constant
Bit rate                                 : 448 Kbps
Channel(s)                               : 6 channels
Channel positions                        : Front: L C R, Side: L R, LFE
Sampling rate                            : 48.0 KHz
Bit depth                                : 16 bits
Compression mode                         : Lossy
Stream size                              : 377 MiB (15%)
Alignment                                : Split accross interleaves
Interleave, duration                     : 959 ms (23.00 video frames)


















Imagem Imagem Imagem
Imagem Imagem Imagem


ed2k: Captain.America.The.First.Avenger.(2011).BRRip.XviD.AC3.LPT-SMCO.avi  [2.44 Gb]
Imagem

pixie
eMuleCoop
eMuleCoop
Mensagens: 435
Registado: 14 out 2011, 23:36

Re: Captain America: The First Avenger (2011) *LPT BDRip* - SMCO

Mensagem por pixie » 06 jun 2012, 07:52

Obrigado

Responder

Voltar para “Filmes Legendados // Movies With Subtitles Inscription”