Thor (2011) *LPT BDRip* - SMCO

Filmes com legendas embutidas PT / BR (Subbed)

Moderador: Moderador

Responder
Avatar do Utilizador
Barefaced
Administrador
Administrador
Mensagens: 39097
Registado: 06 jul 2007, 17:43
Localização: @ Home
Contacto:

Thor (2011) *LPT BDRip* - SMCO

Mensagem por Barefaced » 06 jun 2012, 05:51




Simopse
Thor (Chris Hemsworth) estava prestes a receber o comando de Asgard das mãos do seu pai Odin (Anthony Hopkins) quando forças inimigas quebraram um acordo de paz. Disposto a vingar-se do ocorrido, o jovem guerreiro desobedece às ordens do rei e quase dá início a uma nova guerra entre os reinos. Enfurecido com a atitude do filho e herdeiro, Odin retira os seus poderes e expulsa-o para a Terra. Lá, Thor acaba conhecendo a cientista Jane Foster (Natalie Portman) e precisa recuperar o seu martelo, enquanto o seu irmão Loki (Tom Hiddleston) elabora um plano para assumir o poder. Mas os guerreiros do deus do Trovão fazem a mesma viagem para buscar o amigo e impedir que isso aconteça. Só que eles não vieram sozinhos e o inimigo está presente para uma batalha que está apenas a começar.


imdb.com
Thor (2011)

Capa
Sinopse:The powerful, but arrogant god Thor, is cast out of Asgard to live amongst humans in Midgard (Earth), where he soon becomes one of their finest defenders.
Pontuação:7.0
Duração:115 minutos
Idioma:English
Realizador:Kenneth Branagh
Actores:Chris Hemsworth, Natalie Portman, Tom Hiddleston, Anthony Hopkins, Stellan Skarsgård
  
Fonte:http://www.imdb.com/title/tt0800369
Última Actualização:Segunda Março 12, 2018 10:16


Código: Selecionar todos

General
Complete name                    : Thor.(2011).BRRip.XviD.AC3.LPT-SMCO.avi
Format                           : AVI
Format/Info                      : Audio Video Interleave
Format profile                   : OpenDML
File size                        : 2.16 GiB
Duration                         : 1h 48mn
Overall bit rate                 : 2 845 Kbps

Video
ID                               : 0
Format                           : MPEG-4 Visual
Format profile                   : Advanced Simple@L5
Format settings, BVOP            : 2
Format settings, QPel            : No
Format settings, GMC             : No warppoints
Format settings, Matrix          : Default (H.263)
Muxing mode                      : Packed bitstream
Codec ID                         : XVID
Codec ID/Hint                    : XviD
Duration                         : 1h 48mn
Bit rate                         : 2 392 Kbps
Width                            : 720 pixels
Height                           : 304 pixels
Display aspect ratio             : 2.35:1
Frame rate                       : 23.976 fps
Original frame rate              : 25.000 fps
Color space                      : YUV
Chroma subsampling               : 4:2:0
Bit depth                        : 8 bits
Scan type                        : Progressive
Compression mode                 : Lossy
Bits/(Pixel*Frame)               : 0.456
Stream size                      : 1.82 GiB (84%)
Writing library                  : XviD 1.2.0.dev47 (UTC 2006-11-01)

Audio
ID                               : 1
Format                           : AC-3
Format/Info                      : Audio Coding 3
Mode extension                   : CM (complete main)
Codec ID                         : 2000
Duration                         : 1h 48mn
Bit rate mode                    : Constant
Bit rate                         : 448 Kbps
Channel(s)                       : 6 channels
Channel positions                : Front: L C R, Side: L R, LFE
Sampling rate                    : 48.0 KHz
Bit depth                        : 16 bits
Compression mode                 : Lossy
Stream size                      : 349 MiB (16%)
Alignment                        : Split accross interleaves
Interleave, duration             : 959 ms (23.00 video frames)




Imagem

Imagem

Imagem

Imagem

Imagem

Imagem

Imagem


ed2k: Thor.(2011).BRRip.XviD.AC3.LPT-SMCO.avi  [2.16 Gb]
Imagem
Imagem

pixie
eMuleCoop
eMuleCoop
Mensagens: 434
Registado: 14 out 2011, 23:36

Re: Thor (2011) *LPT BDRip* - SMCO

Mensagem por pixie » 06 jun 2012, 07:52

Obrigado

Responder
  • Tópicos Semelhantes
    Respostas
    Visualizações
    Última Mensagem

Voltar para “Filmes Legendados // Movies With Subtitles Inscription”