Megamind (2010) *LPT BDRip* - SMCO

Filmes com legendas embutidas PT / BR (Subbed)

Moderador: Moderador

Responder
Avatar do Utilizador
Barefaced
Administrador
Administrador
Mensagens: 39166
Registado: 06 jul 2007, 17:43
Localização: @ Home
Contacto:

Megamind (2010) *LPT BDRip* - SMCO

Mensagem por Barefaced » 29 set 2011, 23:11




Sinopse
Ao longo dos anos, Megamind tem tentado conquistar Metro City de todas as formas possíveis e imaginárias. Cada tentativa é um colossal falhanço, devido ao herói mascarado conhecido como "Metro Man", um herói invencível, até ao dia em que Megamind, por entre os esquemas dos seus planos malévolos, o liquida. Subitamente, Megamind fica sem planos. É um super-vilão sem super-herói. Ele apercebe-se que alcançar os seus objectivos de vida foi a pior coisa que lhe aconteceu. Megamind decide que a única saída é criar um novo herói para seu inimigo, chamado "Titan", o qual promete ser maior, melhor e mais forte do que o Metro Man alguma vez foi. Rapidamente, Titan começa a achar que ser vilão é bem mais divertido do que ser um dos bonzinhos. Com um pequeno detalhe: Titan não quer simplesmente liderar o mundo, ele quer destruí-lo. E, assim sendo, Megamind tem de decidir: conseguirá ele destruir a sua diabólica criação? Conseguirá o homem mais inteligente do mundo tomar uma decisão inteligente, pelo menos uma vez na vida? Conseguirá o génio do mal tornar-se no improvável herói da sua própria história?


imdb.com
Megamind (2010)

Capa
Sinopse:The supervillain Megamind finally defeats his nemesis, the superhero Metro Man. But without a hero, he loses all purpose and must find new meaning to his life.
Pontuação:7.3
Duração:95 minutos
Idioma:English
Realizador:Tom McGrath
Actores:Will Ferrell, Brad Pitt, Tina Fey, Jonah Hill, David Cross
  
Fonte:http://www.imdb.com/title/tt1001526
Última Actualização:Segunda Março 12, 2018 10:15


Código: Selecionar todos

General
Complete name                    : Megamind.(2010).BDRip.XviD.AC3.LPT-SMCO.avi
Format                           : AVI
Format/Info                      : Audio Video Interleave
Format profile                   : OpenDML
File size                        : 2.05 GiB
Duration                         : 1h 35mn
Overall bit rate                 : 3 075 Kbps

Video
ID                               : 0
Format                           : MPEG-4 Visual
Format profile                   : Advanced Simple@L5
Format settings, BVOP            : 2
Format settings, QPel            : No
Format settings, GMC             : No warppoints
Format settings, Matrix          : Default (H.263)
Muxing mode                      : Packed bitstream
Codec ID                         : XVID
Codec ID/Hint                    : XviD
Duration                         : 1h 35mn
Bit rate                         : 2 622 Kbps
Width                            : 1 280 pixels
Height                           : 544 pixels
Display aspect ratio             : 2.35:1
Frame rate                       : 23.976 fps
Original frame rate              : 25.000 fps
Color space                      : YUV
Chroma subsampling               : 4:2:0
Bit depth                        : 8 bits
Scan type                        : Progressive
Compression mode                 : Lossy
Bits/(Pixel*Frame)               : 0.157
Stream size                      : 1.75 GiB (85%)
Writing library                  : XviD 1.2.0.dev47 (UTC 2006-11-01)

Audio
ID                               : 1
Format                           : AC-3
Format/Info                      : Audio Coding 3
Mode extension                   : CM (complete main)
Codec ID                         : 2000
Duration                         : 1h 35mn
Bit rate mode                    : Constant
Bit rate                         : 448 Kbps
Channel(s)                       : 6 channels
Channel positions                : Front: L C R, Side: L R, LFE
Sampling rate                    : 48.0 KHz
Bit depth                        : 16 bits
Compression mode                 : Lossy
Stream size                      : 306 MiB (15%)
Alignment                        : Split accross interleaves
Interleave, duration             : 959 ms (23.00 video frames)















ed2k: Megamind.(2010).BDRip.XviD.AC3.LPT-SMCO.avi  [2.05 Gb]
Imagem
Imagem

Responder
  • Tópicos Semelhantes
    Respostas
    Visualizações
    Última Mensagem

Voltar para “Filmes Legendados // Movies With Subtitles Inscription”