Marmaduke (2010) *LPT BDRip* - SMCO

Filmes com legendas embutidas PT / BR (Subbed)

Moderador: Moderador

Responder
Avatar do Utilizador
Barefaced
Administrador
Administrador
Mensagens: 39176
Registado: 06 jul 2007, 17:43
Localização: @ Home
Contacto:

Marmaduke (2010) *LPT BDRip* - SMCO

Mensagem por Barefaced » 29 set 2011, 22:47




Sinopse
Marmaduke, o Dogue Alemão mais adorado do mundo, salta do sucesso dos quadradinhos de banda desenhada (mais de 600 jornais em mais de 20 países) para o estrelato dos grandes ecrãs. Nesta comédia familiar, "Duke" vive à grande em Orange County, na Califórnia. Mas ambientar-se aos seus novos amigos de quatro patas - e potenciais interesses românticos - nem sempre é fácil para um cão adolescente de tamanho XL.


imdb.com
Marmaduke (2010)

Capa
Sinopse:A suburban family moves to a new neighborhood with their large, yet lovable Great Dane, who has a tendency to wreak havoc in his own oblivious way.
Pontuação:4.2
Duração:87 minutos
Idioma:English
Realizador:Tom Dey
Actores:Owen Wilson, Emma Stone, George Lopez, Christopher Mintz-Plasse, Steve Coogan
  
Fonte:http://www.imdb.com/title/tt1392197
Última Actualização:Segunda Março 12, 2018 08:28


Código: Selecionar todos

General
Complete name                    : Marmaduke.(2010).BDRip.XviD.AC3.LPT-SMCO.avi
Format                           : AVI
Format/Info                      : Audio Video Interleave
File size                        : 1.57 GiB
Duration                         : 1h 28mn
Overall bit rate                 : 2 547 Kbps
Writing application              : VirtualDubMod 1.5.10.2 (build 2540/release)
Writing library                  : VirtualDubMod build 2540/release

Video
ID                               : 0
Format                           : MPEG-4 Visual
Format profile                   : Advanced Simple@L5
Format settings, BVOP            : 2
Format settings, QPel            : No
Format settings, GMC             : No warppoints
Format settings, Matrix          : Default (H.263)
Muxing mode                      : Packed bitstream
Codec ID                         : XVID
Codec ID/Hint                    : XviD
Duration                         : 1h 28mn
Bit rate                         : 2 090 Kbps
Width                            : 720 pixels
Height                           : 304 pixels
Display aspect ratio             : 2.35:1
Frame rate                       : 23.976 fps
Color space                      : YUV
Chroma subsampling               : 4:2:0
Bit depth                        : 8 bits
Scan type                        : Progressive
Compression mode                 : Lossy
Bits/(Pixel*Frame)               : 0.398
Stream size                      : 1.29 GiB (82%)
Writing library                  : XviD 1.2.0.dev47 (UTC 2006-11-01)

Audio
ID                               : 1
Format                           : AC-3
Format/Info                      : Audio Coding 3
Mode extension                   : CM (complete main)
Codec ID                         : 2000
Duration                         : 1h 28mn
Bit rate mode                    : Constant
Bit rate                         : 448 Kbps
Channel(s)                       : 6 channels
Channel positions                : Front: L C R, Side: L R, LFE
Sampling rate                    : 48.0 KHz
Bit depth                        : 16 bits
Compression mode                 : Lossy
Delay relative to video          : 28ms
Stream size                      : 282 MiB (18%)
Alignment                        : Split accross interleaves
Interleave, duration             : 42 ms (1.00 video frame)
Interleave, preload duration     : 500 ms















ed2k: Marmaduke.(2010).BDRip.XviD.AC3.LPT-SMCO.avi  [1.57 Gb]
Imagem
Imagem

Responder
  • Tópicos Semelhantes
    Respostas
    Visualizações
    Última Mensagem

Voltar para “Filmes Legendados // Movies With Subtitles Inscription”