Fast Five (2011) *LPT BDRip* - SMCO

Filmes com legendas embutidas PT / BR (Subbed)

Moderador: Moderador

Responder
Avatar do Utilizador
Barefaced
Administrador
Administrador
Mensagens: 36148
Registado: 06 jul 2007, 17:43
Localização: @ Home
Contacto:

Fast Five (2011) *LPT BDRip* - SMCO

Mensagem por Barefaced » 16 jun 2012, 17:45




Sinopse
Agora, o polícia demissionário Brian O'Conner junta-se ao ex-condenado Dom Toretto no outro lado da lei. Dwayne Johnson é a nova aquisição, com Jordana Brewster, Chris "Ludacris" Bridges, Tyrese Gibson, Sung Kang, Gal Gadot, Matt Schulze, Tego Calderon e Don Omar para esta derradeira corrida. Este poderoso elenco, conta ainda com a participação de Joaquim de Almeida. Desde que Brian e Mia Toretto soltaram Dom da prisão, eles ultrapassaram várias fronteiras para evitar as autoridades. Instalados agora no Rio de Janeiro, terão de realizar um último trabalho para conquistar a liberdade. Enquanto reúnem uma equipa de elite com condutores de topo, estes aliados improváveis sabem que esta é a única oportunidade para enfrentar o empresário corrupto que os quer matar a todos. Mas ele não é o único que os persegue. O duro agente federal Luke Hobbs nunca falha um alvo. Quando é destacado para perseguir Dom e Brian, ele e a sua equipa de intervenção desencadeiam uma missão de grande escala para os capturar. Mas enquanto a sua equipa invade o Brasil, Hobbs apercebe-se que não consegue separar os bons dos maus. Agora, terá de confiar nos seus instintos para apanhar a sua presa… antes que alguém o faça.


imdb.com
Fast Five (2011)

Capa
Sinopse:Dominic Toretto and his crew of street racers plan a massive heist to buy their freedom while in the sights of a powerful Brazilian drug lord and a dangerous federal agent.
Pontuação:7.3
Duração:130 minutos
Idioma:English, Portuguese, Spanish, Italian
Realizador:Justin Lin
Actores:Vin Diesel, Paul Walker, Jordana Brewster, Tyrese Gibson, Ludacris
  
Fonte:http://www.imdb.com/title/tt1596343
Última Actualização:Segunda Março 12, 2018 09:31


Código: Selecionar todos

General
Complete name                    : Fast.Five.(2011).BDRip.XviD.AC3-SMCO.avi
Format                           : AVI
Format/Info                      : Audio Video Interleave
Format profile                   : OpenDML
File size                        : 2.27 GiB
Duration                         : 2h 4mn
Overall bit rate                 : 2 613 Kbps

Video
ID                               : 0
Format                           : MPEG-4 Visual
Format profile                   : Advanced Simple@L5
Format settings, BVOP            : 2
Format settings, QPel            : No
Format settings, GMC             : No warppoints
Format settings, Matrix          : Default (H.263)
Muxing mode                      : Packed bitstream
Codec ID                         : XVID
Codec ID/Hint                    : XviD
Duration                         : 2h 4mn
Bit rate                         : 1 969 Kbps
Width                            : 720 pixels
Height                           : 304 pixels
Display aspect ratio             : 2.35:1
Frame rate                       : 23.976 fps
Original frame rate              : 25.000 fps
Color space                      : YUV
Chroma subsampling               : 4:2:0
Bit depth                        : 8 bits
Scan type                        : Progressive
Compression mode                 : Lossy
Bits/(Pixel*Frame)               : 0.375
Stream size                      : 1.71 GiB (75%)
Writing library                  : XviD 1.2.0.dev47 (UTC 2006-11-01)

Audio
ID                               : 1
Format                           : AC-3
Format/Info                      : Audio Coding 3
Mode extension                   : CM (complete main)
Codec ID                         : 2000
Duration                         : 2h 4mn
Bit rate mode                    : Constant
Bit rate                         : 640 Kbps
Channel(s)                       : 6 channels
Channel positions                : Front: L C R, Side: L R, LFE
Sampling rate                    : 48.0 KHz
Bit depth                        : 16 bits
Compression mode                 : Lossy
Stream size                      : 569 MiB (24%)
Alignment                        : Split accross interleaves
Interleave, duration             : 959 ms (23.00 video frames)




Imagem

Imagem

Imagem

Imagem

Imagem


ed2k: Fast.Five.(2011).BDRip.XviD.AC3.LPT-SMCO.avi  [2.27 Gb]


Ressuscitado pela última vez por Barefaced em 16 jun 2012, 17:45.
Imagem

Responder

Voltar para “Filmes Legendados // Movies With Subtitles Inscription”