Knight and Day (2010) *LPT BDRip* - SMCO

Filmes com legendas embutidas PT / BR (Subbed)

Moderador: Moderador

Responder
Avatar do Utilizador
Barefaced
Administrador
Administrador
Mensagens: 37299
Registado: 06 jul 2007, 17:43
Localização: @ Home
Contacto:

Knight and Day (2010) *LPT BDRip* - SMCO

Mensagem por Barefaced » 12 fev 2012, 00:45




Sinopse
Nesta comédia de acção Tom Cruise é um agente secreto enviado numa missão que nunca foi suposto terminar e Cameron Diaz é uma mulher apanhada desprevenida entre o agente e aqueles que ele afirma terem-lhe armado uma cilada. À medida que a sua aventura mundial irrompe num labirinto de encruzilhadas, falsas identidades e fugas impossíveis, acabam por chegar à conclusão de que só podem contar um com o outro.


imdb.com
Knight and Day (2010)

Capa
Sinopse:A young woman gets mixed up with a disgraced spy who is trying to clear his name.
Pontuação:6.3
Duração:109 minutos
Idioma:English, German, Spanish
Realizador:James Mangold
Actores:Tom Cruise, Cameron Diaz, Peter Sarsgaard, Jordi Mollà, Viola Davis
  
Fonte:http://www.imdb.com/title/tt1013743
Última Actualização:Segunda Março 12, 2018 08:45


Código: Selecionar todos

General
Complete name                            : Knight.and.Day.(2010).BDRip.XviD.AC3.LPT-SMCO.avi
Format                                   : AVI
Format/Info                              : Audio Video Interleave
File size                                : 2.42 GiB
Duration                                 : 1h 49mn
Overall bit rate                         : 3 164 Kbps

Video
ID                                       : 0
Format                                   : MPEG-4 Visual
Codec ID                                 : XVID
Codec ID/Hint                            : XviD
Duration                                 : 1h 49mn
Source duration                          : 2mn 46s
Bit rate                                 : 68.3 Kbps
Width                                    : 720 pixels
Height                                   : 304 pixels
Display aspect ratio                     : 2.35:1
Frame rate                               : 23.976 fps
Color space                              : YUV
Chroma subsampling                       : 4:2:0
Compression mode                         : Lossy
Bits/(Pixel*Frame)                       : 0.013
Stream size                              : 53.5 MiB (2%)

Audio
ID                                       : 1
Format                                   : AC-3
Format/Info                              : Audio Coding 3
Codec ID                                 : 2000
Duration                                 : 1h 49mn
Source duration                          : 1h 3mn
Bit rate mode                            : Constant
Bit rate                                 : 448 Kbps
Channel(s)                               : 6 channels
Sampling rate                            : 48.0 KHz
Compression mode                         : Lossy
Stream size                              : 205 MiB (8%)
Alignment                                : Aligned on interleaves
Interleave, duration                     : 42 ms (1.00 video frame)















ed2k: Knight.and.Day.(2010).BDRip.XviD.AC3.LPT-SMCO.avi  [2.42 Gb]
Imagem
Imagem

Responder

Voltar para “Filmes Legendados // Movies With Subtitles Inscription”