Land Of The Lost (2009) *LPT BDRip* - SMCO

Filmes com legendas embutidas PT / BR (Subbed)

Moderador: Moderador

Responder
Avatar do Utilizador
Barefaced
Administrador
Administrador
Mensagens: 37262
Registado: 06 jul 2007, 17:43
Localização: @ Home
Contacto:

Land Of The Lost (2009) *LPT BDRip* - SMCO

Mensagem por Barefaced » 27 mai 2012, 23:00




Sinopse
Basedo na série de TV (1974-1977) do mesmo nome, a história gira em torno do cientista Dr. Rick Marshall (Will Ferrell) e da sua assistente de investigação, Holly Cantrell (Anna Friel), que são enviados para um universo fantástico, repleto de dinossauros e criaturas estranhas na companhia de Will Stanton (Danny McBride), um vendedor de recordações e trastes que luta por sobreviver...


imdb.com
Land of the Lost (2009)

Capa
Sinopse:On his latest expedition, Dr. Rick Marshall is sucked into a space-time vortex alongside his research assistant and a redneck survivalist. In this alternate universe, the trio make friends with a primate named Chaka, their only ally in a world full of dinosaurs and other fantastic creatures.
Pontuação:5.4
Duração:102 minutos
Idioma:English
Realizador:Brad Silberling
Actores:Will Ferrell, Anna Friel, Danny McBride, Jorma Taccone, John Boylan
  
Fonte:http://www.imdb.com/title/tt0457400
Última Actualização:Segunda Março 12, 2018 07:15


Código: Selecionar todos

General
Complete name                            : Land.Of.The.Lost.(2009).BRRip.XviD.AC3.LPT-SMCO.[TheRostrum.net].avi
Format                                   : AVI
Format/Info                              : Audio Video Interleave
File size                                : 1.63 GiB
Duration                                 : 1h 41mn
Overall bit rate                         : 2 291 Kbps
Writing application                      : VirtualDubMod 1.5.10.2 (build 2540/release)
Writing library                          : VirtualDubMod build 2540/release

Video
ID                                       : 0
Format                                   : MPEG-4 Visual
Format profile                           : Advanced Simple@L5
Format settings, BVOP                    : 2
Format settings, QPel                    : No
Format settings, GMC                     : No warppoints
Format settings, Matrix                  : Default (H.263)
Muxing mode                              : Packed bitstream
Codec ID                                 : XVID
Codec ID/Hint                            : XviD
Duration                                 : 1h 41mn
Bit rate                                 : 1 834 Kbps
Width                                    : 720 pixels
Height                                   : 384 pixels
Display aspect ratio                     : 1.85:1
Frame rate                               : 23.976 fps
Color space                              : YUV
Chroma subsampling                       : 4:2:0
Bit depth                                : 8 bits
Scan type                                : Progressive
Compression mode                         : Lossy
Bits/(Pixel*Frame)                       : 0.277
Stream size                              : 1.30 GiB (80%)
Writing library                          : XviD 1.2.0.dev47 (UTC 2006-11-01)

Audio
ID                                       : 1
Format                                   : AC-3
Format/Info                              : Audio Coding 3
Mode extension                           : CM (complete main)
Format settings, Endianness              : Big
Codec ID                                 : 2000
Duration                                 : 1h 41mn
Bit rate mode                            : Constant
Bit rate                                 : 448 Kbps
Channel(s)                               : 6 channels
Channel positions                        : Front: L C R, Side: L R, LFE
Sampling rate                            : 48.0 KHz
Bit depth                                : 16 bits
Compression mode                         : Lossy
Stream size                              : 326 MiB (20%)
Alignment                                : Split accross interleaves
Interleave, duration                     : 42 ms (1.00 video frame)
Interleave, preload duration             : 500 ms



Imagem

Imagem

Imagem

Imagem

Imagem Imagem Imagem Imagem


ed2k: Land.Of.The.Lost.(2009).BRRip.AC3.XviD.LPT-SMCO.[TheRostrum.net].avi  [1.63 Gb]


Ressuscitado pela última vez por Barefaced em 27 mai 2012, 23:00.
Imagem
Imagem

Responder

Voltar para “Filmes Legendados // Movies With Subtitles Inscription”