The Last House on the Left (2009) *LPT BDRip* - SMCO

Filmes com legendas embutidas PT / BR (Subbed)

Moderador: Moderador

Responder
Avatar do Utilizador
Barefaced
Administrador
Administrador
Mensagens: 39099
Registado: 06 jul 2007, 17:43
Localização: @ Home
Contacto:

The Last House on the Left (2009) *LPT BDRip* - SMCO

Mensagem por Barefaced » 21 dez 2009, 01:23




Sinopse
A noite chega à remota casa do lago Collingwood. Mari (Sara Paxton) e a sua amiga são raptadas por um fugitivo da prisão e o seu bando. Aterrorizada e deixada para morrer, a única esperança de Mary é voltar para sua casa e rever os seus pais John e Emma (Tony Goldwyn e Monica Potter). Infelizmente, aqueles que a atacaram, sem saber, foram buscar abrigo no único lugar onde ela imaginava estar segura. E quando a família descobre a horripilante história, eles farão os três estranhos amaldiçoarem o dia em que vieram á Última Casa à Esquerda.


imdb.com
The Last House on the Left (2009)

Capa
Sinopse:After kidnapping and brutally assaulting two young women, a gang unknowingly finds refuge at a vacation home belonging to the parents of one of the victims: a mother and father who devise an increasingly gruesome series of revenge tactics.
Pontuação:6.6
Duração:110 minutos
Idioma:English
Realizador:Dennis Iliadis
Actores:Garret Dillahunt, Michael Bowen, Josh Coxx, Riki Lindhome, Aaron Paul
  
Fonte:http://www.imdb.com/title/tt0844708
Última Actualização:Segunda Março 12, 2018 10:00


Código: Selecionar todos

General
Complete name                            : The.Last.House.on.the.Left.(2009).BDRip.XviD.AC3.LPT-SMCO.avi
Format                                   : AVI
Format/Info                              : Audio Video Interleave
File size                                : 1.49 GiB
Duration                                 : 1h 49mn
Overall bit rate                         : 1 959 Kbps
Writing application                      : VirtualDubMod 1.5.10.2 (build 2540/release)
Writing library                          : VirtualDubMod build 2540/release

Video
ID                                       : 0
Format                                   : MPEG-4 Visual
Format profile                           : Advanced Simple@L5
Format settings, BVOP                    : 2
Format settings, QPel                    : No
Format settings, GMC                     : No warppoints
Format settings, Matrix                  : Default (H.263)
Muxing mode                              : Packed bitstream
Codec ID                                 : XVID
Codec ID/Hint                            : XviD
Duration                                 : 1h 49mn
Bit rate                                 : 1 501 Kbps
Width                                    : 720 pixels
Height                                   : 384 pixels
Display aspect ratio                     : 1.875
Frame rate                               : 23.976 fps
Color space                              : YUV
Chroma subsampling                       : 4:2:0
Bit depth                                : 8 bits
Scan type                                : Progressive
Compression mode                         : Lossy
Bits/(Pixel*Frame)                       : 0.226
Stream size                              : 1.14 GiB (77%)
Writing library                          : XviD 1.2.0.dev47 (UTC 2006-11-01)

Audio
ID                                       : 1
Format                                   : AC-3
Format/Info                              : Audio Coding 3
Mode extension                           : CM (complete main)
Codec ID                                 : 2000
Duration                                 : 1h 49mn
Bit rate mode                            : Constant
Bit rate                                 : 448 Kbps
Channel(s)                               : 6 channels
Channel positions                        : Front: L C R, Side: L R, LFE
Sampling rate                            : 48.0 KHz
Bit depth                                : 16 bits
Compression mode                         : Lossy
Stream size                              : 349 MiB (23%)
Alignment                                : Split accross interleaves
Interleave, duration                     : 42 ms (1.00 video frame)
Interleave, preload duration             : 500 ms




Imagem

Imagem

Imagem

Imagem


ed2k: The.Last.House.on.the.Left.(2009).BDRip.AC3.XviD.LPT-SMCO.avi  [1.49 Gb]
Imagem
Imagem

Avatar do Utilizador
tueunos
Utilizador
Utilizador
Mensagens: 7538
Registado: 17 mai 2008, 21:31
Localização: Algures Planeta Terra

Re: The Last House on the Left (2009) *LPT BDRip* - SMCO

Mensagem por tueunos » 20 mar 2012, 08:35

Obrigado, prontinho pra ver jà leg.


:112104oe0: :thanx:

Avatar do Utilizador
Barefaced
Administrador
Administrador
Mensagens: 39099
Registado: 06 jul 2007, 17:43
Localização: @ Home
Contacto:

Re: The Last House on the Left (2009) *LPT BDRip* - SMCO

Mensagem por Barefaced » 20 mar 2012, 09:02

Reshare :wav:
Imagem
Imagem

Responder
  • Tópicos Semelhantes
    Respostas
    Visualizações
    Última Mensagem

Voltar para “Filmes Legendados // Movies With Subtitles Inscription”