Elephant White (2011) *LPT BDRip* - SMCO

Filmes com legendas embutidas PT / BR (Subbed)

Moderador: Moderador

Responder
Avatar do Utilizador
Barefaced
Administrador
Administrador
Mensagens: 39109
Registado: 06 jul 2007, 17:43
Localização: @ Home
Contacto:

Elephant White (2011) *LPT BDRip* - SMCO

Mensagem por Barefaced » 14 mar 2012, 05:22




Sinopse
Um importante industrial contrata o assassino Curtie Church para vingar a morte da sua filha por traficantes de escravas brancas na Tailândia. Com a ajuda do seu paranóico, mas divertido, fornecedor de armas, um Church impiedoso extermina os bandidos um por um. Ao longo do seu caminho, ele liberta uma jovem prostituta; eventos misteriosos começam a acontecer até Church descobrir que ela não é apenas um fantasma de uma das suas vítimas, mas também está ao seu lado mas também é extremamente destrutiva...


imdb.com
Elephant White (2011)

Capa
Sinopse:An assassin is hired by a businessman to avenge the murder of his daughter by white slave traders in Thailand.
Pontuação:5.1
Duração:91 minutos
Idioma:English
Realizador:Prachya Pinkaew
Actores:Djimon Hounsou, Markus Waldow, Kevin Bacon, Jirantanin Pitakporntrakul, Weeraprawat Wongpuapan
  
Fonte:http://www.imdb.com/title/tt1578882
Última Actualização:Segunda Março 12, 2018 11:21


Código: Selecionar todos

General
Complete name                            : Elephant.White.(2011).BRRip.XviD.AC3.LPT-SMCO.avi
Format                                   : AVI
Format/Info                              : Audio Video Interleave
Format profile                           : OpenDML
File size                                : 1.85 GiB
Duration                                 : 1h 31mn
Overall bit rate                         : 2 901 Kbps

Video
ID                                       : 0
Format                                   : MPEG-4 Visual
Format profile                           : Advanced Simple@L5
Format settings, BVOP                    : 2
Format settings, QPel                    : No
Format settings, GMC                     : No warppoints
Format settings, Matrix                  : Default (H.263)
Muxing mode                              : Packed bitstream
Codec ID                                 : XVID
Codec ID/Hint                            : XviD
Duration                                 : 1h 31mn
Bit rate                                 : 2 448 Kbps
Width                                    : 720 pixels
Height                                   : 304 pixels
Display aspect ratio                     : 2.35:1
Frame rate                               : 23.976 fps
Original frame rate                      : 25.000 fps
Color space                              : YUV
Chroma subsampling                       : 4:2:0
Bit depth                                : 8 bits
Scan type                                : Progressive
Compression mode                         : Lossy
Bits/(Pixel*Frame)                       : 0.466
Stream size                              : 1.56 GiB (84%)
Writing library                          : XviD 1.2.0.dev47 (UTC 2006-11-01)

Audio
ID                                       : 1
Format                                   : AC-3
Format/Info                              : Audio Coding 3
Mode extension                           : CM (complete main)
Codec ID                                 : 2000
Duration                                 : 1h 31mn
Bit rate mode                            : Constant
Bit rate                                 : 448 Kbps
Channel(s)                               : 6 channels
Channel positions                        : Front: L C R, Side: L R, LFE
Sampling rate                            : 48.0 KHz
Bit depth                                : 16 bits
Compression mode                         : Lossy
Stream size                              : 293 MiB (15%)
Alignment                                : Split accross interleaves
Interleave, duration                     : 959 ms (23.00 video frames)




Imagem

Imagem

Imagem

Imagem

Imagem


ed2k: Elephant.White.(2011).BRRip.XviD.AC3.LPT-SMCO.[TheRostrum.net].avi  [1.85 Gb]
Imagem
Imagem

Avatar do Utilizador
zekka2772
Utilizador
Utilizador
Mensagens: 329
Registado: 09 dez 2009, 18:46

Re: Elephant White (2011) *LPT BDRip* - SMCO

Mensagem por zekka2772 » 14 mar 2012, 20:49

Um bom post.
Obrigado!


zekka2772 :icon_cool: :portugal:
zekka2772

Responder
  • Tópicos Semelhantes
    Respostas
    Visualizações
    Última Mensagem

Voltar para “Filmes Legendados // Movies With Subtitles Inscription”