Edge of Darkness (2010) *LPT BDRip* - SMCO

Filmes com legendas embutidas PT / BR (Subbed)

Moderador: Moderador

Responder
Avatar do Utilizador
Barefaced
Administrador
Administrador
Mensagens: 36138
Registado: 06 jul 2007, 17:43
Localização: @ Home
Contacto:

Edge of Darkness (2010) *LPT BDRip* - SMCO

Mensagem por Barefaced » 28 mai 2012, 22:07




Sinopse
Thomas Craven é um veterano da Brigada de Homicídios da Polícia de Boston. Quando Emma, a sua única filha, de 24 anos, é assassinada à porta da sua casa, a polícia assume que era ele o alvo a abater. Mas Thomas rapidamente suspeita do contrário, embarcando na missão de descobrir os autores do assassínio. A sua investigação leva-o ao perigoso e elusivo mundo das grandes corporações, dos conluios entre governo, políticos, grandes empresas e o crime, e a um sombrio operacional do governo, Darius Jedburgh, que foi mandado para apagar as pistas do crime. A solitária busca de respostas de Craven em relação à morte da filha transforma-se numa odisseia de descoberta emocional e de redenção. A sua única filha, que julgava conhecer, tinha afinal uma vida completamente desconhecida, ao serviço de uma empresa de sistemas de segurança.


imdb.com
Edge of Darkness (2010)

Capa
Sinopse:As homicide detective Thomas Craven investigates the death of his activist daughter, he uncovers not only her secret life, but a corporate cover-up and government collusion that attracts an agent tasked with cleaning up the evidence.
Pontuação:6.6
Duração:117 minutos
Idioma:English
Realizador:Martin Campbell
Actores:Mel Gibson, Ray Winstone, Danny Huston, Bojana Novakovic, Shawn Roberts
  
Fonte:http://www.imdb.com/title/tt1226273
Última Actualização:Segunda Março 12, 2018 11:08


Código: Selecionar todos

General
Complete name                            : Edge.of.Darkness.(2010).BDRip.XviD.AC3.LPT-SMCO.[TheRostrum.net].avi
Format                                   : AVI
Format/Info                              : Audio Video Interleave
File size                                : 1.95 GiB
Duration                                 : 1h 51mn
Overall bit rate                         : 2 505 Kbps
Writing application                      : VirtualDubMod 1.5.10.2 (build 2540/release)
Writing library                          : VirtualDubMod build 2540/release

Video
ID                                       : 0
Format                                   : MPEG-4 Visual
Format profile                           : Advanced Simple@L5
Format settings, BVOP                    : 2
Format settings, QPel                    : No
Format settings, GMC                     : No warppoints
Format settings, Matrix                  : Default (H.263)
Muxing mode                              : Packed bitstream
Codec ID                                 : XVID
Codec ID/Hint                            : XviD
Duration                                 : 1h 51mn
Bit rate                                 : 1 949 Kbps
Width                                    : 720 pixels
Height                                   : 304 pixels
Display aspect ratio                     : 2.35:1
Frame rate                               : 23.976 fps
Color space                              : YUV
Chroma subsampling                       : 4:2:0
Bit depth                                : 8 bits
Scan type                                : Progressive
Compression mode                         : Lossy
Bits/(Pixel*Frame)                       : 0.371
Stream size                              : 1.52 GiB (78%)
Writing library                          : XviD 1.2.0.dev47 (UTC 2006-11-01)

Audio
ID                                       : 1
Format                                   : AC-3
Format/Info                              : Audio Coding 3
Mode extension                           : CM (complete main)
Format settings, Endianness              : Big
Codec ID                                 : 2000
Duration                                 : 1h 51mn
Bit rate mode                            : Constant
Bit rate                                 : 448 Kbps
Channel(s)                               : 6 channels
Channel positions                        : Front: L C R, Side: L R, LFE
Sampling rate                            : 48.0 KHz
Bit depth                                : 16 bits
Compression mode                         : Lossy
Stream size                              : 357 MiB (18%)
Alignment                                : Split accross interleaves










ed2k: Edge.of.Darkness.(2010).BDRip.XviD.AC3.LPT-SMCO.[TheRostrum.net].avi  [1.95 Gb]
Imagem

Responder

Voltar para “Filmes Legendados // Movies With Subtitles Inscription”