Red (2010) *LPT BDRip* - SMCO

Filmes com legendas embutidas PT / BR (Subbed)

Moderador: Moderador

Responder
Avatar do Utilizador
Barefaced
Administrador
Administrador
Mensagens: 39099
Registado: 06 jul 2007, 17:43
Localização: @ Home
Contacto:

Red (2010) *LPT BDRip* - SMCO

Mensagem por Barefaced » 06 jun 2012, 22:45




Sinopse
Frank Moses (Bruce Willis) é um ex-agente da CIA que tenta se adaptar a aposentadoria até o dia em que um perigoso assassino aparece com a intenção de mata-lo. Com a sua identidade secreta e seu interesse romântico correndo riscos, o ex-agente se reúne com a sua antiga equipe de trabalho (Morgan Freeman, John Malkovich e Helen Mirren) para descobrir quem está por trás disso.


imdb.com
RED (2010)

Capa
Sinopse:When his peaceful life is threatened by a high-tech assassin, former black-ops agent Frank Moses reassembles his old team in a last ditch effort to survive and uncover his assailants.
Pontuação:7.1
Duração:111 minutos
Idioma:English, Russian
Realizador:Robert Schwentke
Actores:Bruce Willis, Mary-Louise Parker, Heidi von Palleske, Karl Urban, Chris Owens
  
Fonte:http://www.imdb.com/title/tt1245526
Última Actualização:Segunda Março 12, 2018 08:48


Código: Selecionar todos

General
Complete name                            : Red.(2010).BDRip.XviD.AC3.LPT-SMCO.[TheRostrum.net].avi
Format                                   : AVI
Format/Info                              : Audio Video Interleave
Format profile                           : OpenDML
File size                                : 1.77 GiB
Duration                                 : 1h 51mn
Overall bit rate                         : 2 285 Kbps

Video
ID                                       : 0
Format                                   : MPEG-4 Visual
Format profile                           : Advanced Simple@L5
Format settings, BVOP                    : 2
Format settings, QPel                    : No
Format settings, GMC                     : No warppoints
Format settings, Matrix                  : Default (H.263)
Muxing mode                              : Packed bitstream
Codec ID                                 : XVID
Codec ID/Hint                            : XviD
Duration                                 : 1h 51mn
Bit rate                                 : 1 832 Kbps
Width                                    : 720 pixels
Height                                   : 304 pixels
Display aspect ratio                     : 2.35:1
Frame rate                               : 23.976 fps
Original frame rate                      : 25.000 fps
Color space                              : YUV
Chroma subsampling                       : 4:2:0
Bit depth                                : 8 bits
Scan type                                : Progressive
Compression mode                         : Lossy
Bits/(Pixel*Frame)                       : 0.349
Stream size                              : 1.42 GiB (80%)
Writing library                          : XviD 1.2.0.dev47 (UTC 2006-11-01)

Audio
ID                                       : 1
Format                                   : AC-3
Format/Info                              : Audio Coding 3
Mode extension                           : CM (complete main)
Format settings, Endianness              : Big
Codec ID                                 : 2000
Duration                                 : 1h 51mn
Bit rate mode                            : Constant
Bit rate                                 : 448 Kbps
Channel(s)                               : 6 channels
Channel positions                        : Front: L C R, Side: L R, LFE
Sampling rate                            : 48.0 KHz
Bit depth                                : 16 bits
Compression mode                         : Lossy
Stream size                              : 356 MiB (20%)
Alignment                                : Split accross interleaves
Interleave, duration                     : 959 ms (23.00 video frames)



















ed2k: Red.(2010).BDRip.XviD.AC3.LPT-SMCO.[TheRostrum.net].avi  [1.77 Gb]
Imagem
Imagem

Responder
  • Tópicos Semelhantes
    Respostas
    Visualizações
    Última Mensagem

Voltar para “Filmes Legendados // Movies With Subtitles Inscription”