The Last Mimzy (2007) *LBR DVDRip* - PREEMOS

Filmes com legendas embutidas PT / BR (Subbed)

Moderador: Moderador

Responder
Avatar do Utilizador
Barefaced
Administrador
Administrador
Mensagens: 39099
Registado: 06 jul 2007, 17:43
Localização: @ Home
Contacto:

The Last Mimzy (2007) *LBR DVDRip* - PREEMOS

Mensagem por Barefaced » 28 mar 2012, 22:10

Imagem


"The Last Mimzy" é sobre a história de duas crianças que descobrem um caixa de brinquedos do futuro, com pedras, um coelhinho de peluche (Mimzy) e outros objectos estranhos. As crianças começam a ficar com poderes especiais, e a história desenvolve-se à volta do que estas vão descobrindo e da sua nova missão: a de enviar Mimzy de volta ao futuro! A história é giríssima, e apesar de as personagens serem duas crianças, Noah (Chris O’Neil) e Emma (Rhiannon Leigh Wryn), não é um filme só para crianças. Rapidamente os pais e professores de Noah e Emma (e até o FBI) se envolvem na descoberta do mistério e acabam por perceber que a missão destas crianças é muito mais importante do que eles imaginavam! Será que ainda vão a tempo de salvar o futuro?


imdb.com
The Last Mimzy (2007)

Capa
Sinopse:Two siblings begin to develop special talents after they find a mysterious box of toys. Soon the kids, their parents, and even their teacher are drawn into a strange new world and find a task ahead of them that is far more important than any of them could imagine!
Pontuação:6.3
Duração:96 minutos
Idioma:English, Spanish
Realizador:Robert Shaye
Actores:Chris O'Neil, Rhiannon Leigh Wryn, Joely Richardson, Timothy Hutton, Rainn Wilson
  
Fonte:http://www.imdb.com/title/tt0768212
Última Actualização:Segunda Março 12, 2018 09:18


Código: Selecionar todos

General
Complete name                            : The.Last.Mimzy.(2007).DVDRip.XviD.LBR-PREEMOS.avi
Format                                   : AVI
Format/Info                              : Audio Video Interleave
File size                                : 698 MiB
Duration                                 : 1h 36mn
Overall bit rate mode                    : Variable
Overall bit rate                         : 1 015 Kbps
Writing application                      : VirtualDubMod 1.5.10.1 (build 2366/release)
Writing library                          : VirtualDubMod build 2366/release

Video
ID                                       : 0
Format                                   : MPEG-4 Visual
Format profile                           : Simple@L3
Format settings, BVOP                    : 2
Format settings, QPel                    : No
Format settings, GMC                     : No warppoints
Format settings, Matrix                  : Default (H.263)
Muxing mode                              : Packed bitstream
Codec ID                                 : XVID
Codec ID/Hint                            : XviD
Duration                                 : 1h 36mn
Bit rate                                 : 847 Kbps
Width                                    : 640 pixels
Height                                   : 272 pixels
Display aspect ratio                     : 2.35:1
Frame rate                               : 23.976 fps
Color space                              : YUV
Chroma subsampling                       : 4:2:0
Bit depth                                : 8 bits
Scan type                                : Progressive
Compression mode                         : Lossy
Bits/(Pixel*Frame)                       : 0.203
Stream size                              : 583 MiB (83%)
Writing library                          : XviD 1.1.0 Beta2 (UTC 2005-04-04)

Audio
ID                                       : 1
Format                                   : MPEG Audio
Format version                           : Version 1
Format profile                           : Layer 3
Mode                                     : Joint stereo
Mode extension                           : MS Stereo
Codec ID                                 : 55
Codec ID/Hint                            : MP3
Duration                                 : 1h 36mn
Bit rate mode                            : Variable
Bit rate                                 : 155 Kbps
Minimum bit rate                         : 128 Kbps
Channel(s)                               : 2 channels
Sampling rate                            : 48.0 KHz
Compression mode                         : Lossy
Stream size                              : 107 MiB (15%)
Alignment                                : Aligned on interleaves
Interleave, duration                     : 24 ms (0.58 video frame)
Interleave, preload duration             : 118 ms
Writing library                          : LAME3.97
Encoding settings                        : -m j -V 2 -q 3 -lowpass 18.6 --vbr-new -b 128




Imagem

Imagem

Imagem

Imagem

Imagem


ed2k: The.Last.Mimzy.(2007).DVDRip.XviD.LBR-PREEMOS.avi  [698.41 Mb]
Última edição por Streme em 16 set 2008, 03:48, editado 1 vez no total.


Ressuscitado pela última vez por Barefaced em 28 mar 2012, 22:10.
Imagem
Imagem

Responder
  • Tópicos Semelhantes
    Respostas
    Visualizações
    Última Mensagem

Voltar para “Filmes Legendados // Movies With Subtitles Inscription”