Don Juan DeMarco (1994) [Dual (eng-ptbr)] *DVDRip* - OS iLUMiNADOS

Filmes em português (Brasil ou Portugal) (Dubbed).

Moderador: Moderador

Responder
Avatar do Utilizador
arf100c
eMuleCoop
eMuleCoop
Mensagens: 7329
Registado: 08 jun 2009, 15:48

Don Juan DeMarco (1994) [Dual (eng-ptbr)] *DVDRip* - OS iLUMiNADOS

Mensagem por arf100c » 25 jan 2013, 08:05

Imagem

Sinopse
Um rapaz usando uma máscara negra, ameaça jogar –se do alto de um edifício. O jovem afirma ser Don Juan, o lendário conquistador de mulheres. Por ter perdido seu primeiro e verdadeiro amor, caiu num estado de depressão profunda. O psiquiatra Jack Mickller é chamado para salvá-lo. No início, o psiquiatra parece cansado, pronto para se aposentar. Mas, a medida que Don Juan começa a descrever sua vida amorosa, Jack sente-se revigorado. Ambos se envolvem num curioso relacionamento que beneficia até a mulher do psiquiatra, sempre relegada à segundo plano pelo marido.
imdb.com
Don Juan DeMarco (1994)

Capa
Sinopse:A psychiatrist must cure a young patient that presents himself as Don Juan, the greatest lover in the world.
Pontuação:6.7
Duração:97 minutos
Idioma:English, Spanish
Realizador:Jeremy Leven
Actores:Marlon Brando, Johnny Depp, Faye Dunaway, Géraldine Pailhas, Bob Dishy
  
Fonte:http://www.imdb.com/title/tt0112883
Última Actualização:Segunda Março 12, 2018 04:36

Código: Selecionar todos

General
Complete name                            : D:\eMule\Don.Juan.DeMarco.(1995).DVDRip.AC3.Dual.ENG.PT-BR.XviD-OS.iLUMiNADOS.CD1.[TheRostrum.net].avi
Format                                   : AVI
Format/Info                              : Audio Video Interleave
File size                                : 701 MiB
Duration                                 : 46mn 37s
Overall bit rate mode                    : Variable
Overall bit rate                         : 2 102 Kbps
Writing application                      : Nandub v1.0rc2
Writing library                          : Nandub build 1852/release

Video
ID                                       : 0
Format                                   : MPEG-4 Visual
Format profile                           : Simple@L3
Format settings, BVOP                    : 2
Format settings, QPel                    : No
Format settings, GMC                     : No warppoints
Format settings, Matrix                  : Default (H.263)
Muxing mode                              : Packed bitstream
Codec ID                                 : XVID
Codec ID/Hint                            : XviD
Duration                                 : 46mn 37s
Bit rate                                 : 1 577 Kbps
Width                                    : 656 pixels
Height                                   : 352 pixels
Display aspect ratio                     : 1.85:1
Frame rate                               : 23.976 fps
Color space                              : YUV
Chroma subsampling                       : 4:2:0
Bit depth                                : 8 bits
Scan type                                : Progressive
Compression mode                         : Lossy
Bits/(Pixel*Frame)                       : 0.285
Stream size                              : 526 MiB (75%)
Writing library                          : XviD 1.0.2 (UTC 2004-08-29)

Audio #1
ID                                       : 1
Format                                   : AC-3
Format/Info                              : Audio Coding 3
Mode extension                           : CM (complete main)
Format settings, Endianness              : Big
Codec ID                                 : 2000
Duration                                 : 46mn 37s
Bit rate mode                            : Constant
Bit rate                                 : 384 Kbps
Channel(s)                               : 6 channels
Channel positions                        : Front: L C R, Side: L R, LFE
Sampling rate                            : 48.0 KHz
Bit depth                                : 16 bits
Compression mode                         : Lossy
Delay relative to video                  : 16ms
Stream size                              : 128 MiB (18%)
Alignment                                : Split accross interleaves
Interleave, duration                     : 96 ms (2.30 video frames)
Interleave, preload duration             : 96 ms

Audio #2
ID                                       : 2
Format                                   : MPEG Audio
Format version                           : Version 1
Format profile                           : Layer 3
Mode                                     : Joint stereo
Mode extension                           : MS Stereo
Codec ID                                 : 55
Codec ID/Hint                            : MP3
Duration                                 : 46mn 37s
Bit rate mode                            : Variable
Bit rate                                 : 124 Kbps
Channel(s)                               : 2 channels
Sampling rate                            : 48.0 KHz
Compression mode                         : Lossy
Delay relative to video                  : 72ms
Stream size                              : 42.1 MiB (6%)
Alignment                                : Split accross interleaves
Interleave, duration                     : 24 ms (0.58 video frame)
Interleave, preload duration             : 335 ms
Writing library                          : LAME3.90.
Encoding settings                        : -m j -V 4 -q 2 -lowpass 17.6 --abr 124


General
Complete name                            : D:\eMule\Don.Juan.DeMarco.(1995).DVDRip.AC3.Dual.ENG.PT-BR.XviD-OS.iLUMiNADOS.CD2.[TheRostrum.net].avi
Format                                   : AVI
Format/Info                              : Audio Video Interleave
File size                                : 701 MiB
Duration                                 : 50mn 28s
Overall bit rate mode                    : Variable
Overall bit rate                         : 1 941 Kbps
Writing application                      : Nandub v1.0rc2
Writing library                          : Nandub build 1852/release

Video
ID                                       : 0
Format                                   : MPEG-4 Visual
Format profile                           : Simple@L3
Format settings, BVOP                    : 1
Format settings, QPel                    : No
Format settings, GMC                     : No warppoints
Format settings, Matrix                  : Default (H.263)
Muxing mode                              : Packed bitstream
Codec ID                                 : XVID
Codec ID/Hint                            : XviD
Duration                                 : 50mn 28s
Bit rate                                 : 1 412 Kbps
Width                                    : 656 pixels
Height                                   : 352 pixels
Display aspect ratio                     : 1.85:1
Frame rate                               : 23.976 fps
Color space                              : YUV
Chroma subsampling                       : 4:2:0
Bit depth                                : 8 bits
Scan type                                : Progressive
Compression mode                         : Lossy
Bits/(Pixel*Frame)                       : 0.255
Stream size                              : 510 MiB (73%)
Writing library                          : XviD 1.0.2 (UTC 2004-08-29)

Audio #1
ID                                       : 1
Format                                   : AC-3
Format/Info                              : Audio Coding 3
Mode extension                           : CM (complete main)
Format settings, Endianness              : Big
Codec ID                                 : 2000
Duration                                 : 50mn 28s
Bit rate mode                            : Constant
Bit rate                                 : 384 Kbps
Channel(s)                               : 6 channels
Channel positions                        : Front: L C R, Side: L R, LFE
Sampling rate                            : 48.0 KHz
Bit depth                                : 16 bits
Compression mode                         : Lossy
Delay relative to video                  : 17ms
Stream size                              : 139 MiB (20%)
Alignment                                : Split accross interleaves
Interleave, duration                     : 96 ms (2.30 video frames)
Interleave, preload duration             : 96 ms

Audio #2
ID                                       : 2
Format                                   : MPEG Audio
Format version                           : Version 1
Format profile                           : Layer 3
Mode                                     : Joint stereo
Mode extension                           : MS Stereo
Codec ID                                 : 55
Codec ID/Hint                            : MP3
Duration                                 : 50mn 28s
Bit rate mode                            : Variable
Bit rate                                 : 128 Kbps
Channel(s)                               : 2 channels
Sampling rate                            : 48.0 KHz
Compression mode                         : Lossy
Stream size                              : 47.0 MiB (7%)
Alignment                                : Aligned on interleaves
Interleave, duration                     : 24 ms (0.58 video frame)
Interleave, preload duration             : 494 ms

Imagem Imagem
Imagem Imagem
Imagem Imagem


ed2k: Don.Juan.DeMarco.(1995).DVDRip.AC3.Dual.ENG.PT-BR.XviD-OS.iLUMiNADOS.CD1.avi  [700.92 Mb]
ed2k: Don.Juan.DeMarco.(1995).DVDRip.AC3.Dual.ENG.PT-BR.XviD-OS.iLUMiNADOS.CD2.avi  [700.67 Mb]
Não tem Permissão para ver os ficheiros anexados nesta mensagem.

Avatar do Utilizador
tainacan
Utilizador
Utilizador
Mensagens: 547
Registado: 05 mai 2011, 06:04

Re: Don Juan DeMarco (1994) [Dual (eng-ptbr)] *DVDRip* - OS iLUMiNADOS

Mensagem por tainacan » 17 nov 2018, 14:05

Obrigado Obrigado Obrigado

:cavalinho: :cavalinho: :cavalinho:

Responder

Voltar para “Filmes Áudio // Movies Sound Doubled”