Harry Potter and the Deathly Hallows: Part 2 (2011) *DVDRip* - LTW

Filmes lançados no ano de 2012 e anos anteriores. / Movies launched in the year of 2012 and previous. (Retail DVD)

Moderador: Moderador

Responder
Avatar do Utilizador
quiZZical
eMulePoster
eMulePoster
Mensagens: 4786
Registado: 28 jul 2011, 19:30

Harry Potter and the Deathly Hallows: Part 2 (2011) *DVDRip* - LTW

Mensagem por quiZZical » 18 out 2011, 09:34




Synopsis
No épico final, a batalha entre as forças do bem e do mal do mundo dos feiticeiros vai originar uma guerra sem precedentes. Os riscos nunca foram tão elevados e ninguém está seguro. Mas é Harry Potter quem terá de fazer o sacrifício final, pois a luta com Lord Voldemort aproxima-se. Tudo acaba.

The final chapter begins as Harry, Ron, and Hermione continue their quest of finding and destroying the Dark Lord's three remaining Horcruxes, the magical items responsible for his immortality. But as the mystical Deathly Hallows are uncovered, and Voldemort finds out about their mission, the biggest battle begins and life as they know it will never be the same again.


imdb.com
Harry Potter and the Deathly Hallows: Part 2 (2011)

Capa
Sinopse:Harry, Ron, and Hermione search for Voldemort's remaining Horcruxes in their effort to destroy the Dark Lord as the final battle rages on at Hogwarts.
Pontuação:8.1
Duração:130 minutos
Idioma:English
Realizador:David Yates
Actores:Ralph Fiennes, Michael Gambon, Alan Rickman, Daniel Radcliffe, Rupert Grint
  
Fonte:http://www.imdb.com/title/tt1201607
Última Actualização:Segunda Março 12, 2018 09:02


Código: Selecionar todos

General
Complete name                    : Harry.Potter.And.The.Deathly.Hallows.Part.2.(2011).DVDRip.XviD-LTW.avi
Format                           : AVI
Format/Info                      : Audio Video Interleave
File size                        : 1.47 GiB
Duration                         : 2h 5mn
Overall bit rate                 : 1 678 Kbps
Writing application              : VirtualDubMod 1.5.4.1 (build 2178/release)
Writing library                  : VirtualDubMod build 2178/release

Video
ID                               : 0
Format                           : MPEG-4 Visual
Format profile                   : Advanced Simple@L5
Format settings, BVOP            : No
Format settings, QPel            : No
Format settings, GMC             : No warppoints
Format settings, Matrix          : Custom
Codec ID                         : XVID
Codec ID/Hint                    : XviD
Duration                         : 2h 5mn
Bit rate                         : 1 478 Kbps
Width                            : 672 pixels
Height                           : 288 pixels
Display aspect ratio             : 2.35:1
Frame rate                       : 29.970 fps
Color space                      : YUV
Chroma subsampling               : 4:2:0
Bit depth                        : 8 bits
Scan type                        : Progressive
Compression mode                 : Lossy
Bits/(Pixel*Frame)               : 0.255
Stream size                      : 1.29 GiB (88%)
Writing library                  : XviD 1.2.1 (UTC 2008-12-04)

Audio
ID                               : 1
Format                           : AC-3
Format/Info                      : Audio Coding 3
Mode extension                   : CM (complete main)
Codec ID                         : 2000
Duration                         : 2h 5mn
Bit rate mode                    : Constant
Bit rate                         : 192 Kbps
Channel(s)                       : 2 channels
Channel positions                : Front: L R
Sampling rate                    : 48.0 KHz
Bit depth                        : 16 bits
Compression mode                 : Lossy
Stream size                      : 172 MiB (11%)
Alignment                        : Split accross interleaves
Interleave, duration             : 96 ms (2.88 video frames)
Interleave, preload duration     : 96 ms
Language                         : English




Imagem

Imagem

Imagem

Imagem

Imagem

Imagem


ed2k: Harry.Potter.And.The.Deathly.Hallows.Part.2.(2011).DVDRip.XviD-LTW.avi  [1.47 Gb]


Harry.Potter.And.The.Deathly.Hallows.Part.2.(2011).DVDRip.XviD-LTW.rar

Avatar do Utilizador
tueunos
Utilizador
Utilizador
Mensagens: 7537
Registado: 17 mai 2008, 21:31
Localização: Algures Planeta Terra

Re: Harry Potter and the Deathly Hallows: Part 2 (2011) *DVDRip* - LTW

Mensagem por tueunos » 18 out 2011, 21:44

Legenda PT Anexada.
Imagem

"A vida é uma pedra de amolar: desgasta-nos ou afia-nos, conforme o metal de que somos feitos."

"Eu sou responsável pelo que digo, não pelo que as pessoas entendem."

Responder
  • Tópicos Semelhantes
    Respostas
    Visualizações
    Última Mensagem

Voltar para “Filmes Arquivados // Filed Movies (Com Legendas/With Subtitles)”