Buda as sharm foru rikht (2007) *DVDRip* - ItzikGur

Filmes lançados no ano de 2012 e anos anteriores. / Movies launched in the year of 2012 and previous. (Retail DVD)

Moderador: Moderador

Responder
Avatar do Utilizador
arf100c
eMuleCoop
eMuleCoop
Mensagens: 7317
Registado: 08 jun 2009, 15:48

Buda as sharm foru rikht (2007) *DVDRip* - ItzikGur

Mensagem por arf100c » 09 fev 2014, 18:18

Imagem

Sinopse
Baktay tem seis anos e vive com sua família em Bamian, cidade em que tesouros da cultura local, como as estátuas de Buda, foram destruí­das pelos talibãs. Instigada por seus vizinhos que já sabem ler, ela faz de tudo para poder estudar em uma escola para meninas que abre do outro lado do rio. Quando segue para a escola, no caminho encontra um grupo de garotos acostumados a brincadeiras de guerra, que resolvem prendê-la como prisioneira. Prêmio Especial do Júri no Festival de San Sebastián de 2007 e Urso de Cristal no Festival de Berlim 2008.
imdb.com
Buddha zerfiel vor Scham (2007)

Capa
Sinopse:A young girl zealously wants to go to school and learn to read and write. Almost everywhere she is met with hostility or indifference. The only young boy who takes her to his school is ...
Pontuação:7.3
Duração:81 minutos
Idioma:Persian
Realizador:Hana Makhmalbaf
Actores:Abbas Alijome, Abdolali Hoseinali, Nikbakht Noruz
  
Fonte:http://www.imdb.com/title/tt1094627
Última Actualização:Segunda Março 12, 2018 08:58

Código: Selecionar todos

File size                        : 632 MiB
Duration                         : 1h 16mn
Overall bit rate                 : 1 148 Kbps

Video
Format                           : MPEG-4 Visual
Format profile                   : Streaming Video@L1
Format settings, BVOP            : Yes
Format settings, QPel            : No
Format settings, GMC             : No warppoints
Format settings, Matrix          : Default
Muxing mode                      : Packed bitstream
Codec ID                         : XVID
Codec ID/Hint                    : XviD
Duration                         : 1h 16mn
Bit rate                         : 946 Kbps
Width                            : 640 pixels
Height                           : 352 pixels
Display aspect ratio             : 16/9
Frame rate                       : 25.000 fps
Resolution                       : 24 bits
Colorimetry                      : 4:2:0
Scan type                        : Progressive
Bits/(Pixel*Frame)               : 0.168
Stream size                      : 521 MiB (82%)
Writing library                  : XviD 1.1.0 (UTC 2005-11-22)

Audio
Format                           : MPEG Audio
Format version                   : Version 1
Format profile                   : Layer 3
Codec ID                         : 55
Codec ID/Hint                    : MP3
Duration                         : 1h 16mn
Bit rate mode                    : Constant
Bit rate                         : 192 Kbps
Channel(s)                       : 2 channels
Sampling rate                    : 48.0 KHz
Resolution                       : 16 bits
Video delay                      : 24ms
Stream size                      : 106 MiB (17%)
Alignment                        : Split accross interleaves
Interleave, duration             : 40 ms (1.00 video frame)
Title                            : Audio Stream



ed2k: Buddha.Collapsed.Out.Of.Shame.2007.DVDRip.XviD-ItzikGur.avi  [631.71 Mb]
Não tem Permissão para ver os ficheiros anexados nesta mensagem.

Nimbus
Utilizador
Utilizador
Mensagens: 56
Registado: 10 jun 2010, 04:31

Re: Buda as sharm foru rikht (2007) *DVDRip* - ItzikGur

Mensagem por Nimbus » 10 fev 2014, 07:53

Obrigado Good Poost!!! ;-)
...a partilha é um dever cívico!....

Avatar do Utilizador
tainacan
Utilizador
Utilizador
Mensagens: 551
Registado: 05 mai 2011, 06:04

Re: Buda as sharm foru rikht (2007) *DVDRip* - ItzikGur

Mensagem por tainacan » 29 jun 2019, 15:45

Belo filme, obrigada

:okapa: :okapa: :okapa:

:cavalinho: :cavalinho: :cavalinho:

Responder

Voltar para “Filmes Arquivados // Filed Movies (Com Legendas/With Subtitles)”