Lion of the Desert (1981) *DVDRip*

Filmes lançados no ano de 2012 e anos anteriores. / Movies launched in the year of 2012 and previous. (Retail DVD)

Moderador: Moderador

Responder
Avatar do Utilizador
arf100c
eMuleCoop
eMuleCoop
Mensagens: 7275
Registado: 08 jun 2009, 15:48

Lion of the Desert (1981) *DVDRip*

Mensagem por arf100c » 02 jan 2013, 22:22




Imagem

Este é um grande épico que tem lugar no calor do deserto e nos conta a história de OMAR MUKHTAR (Anthony Quinn), um grande herói libio que lutou por sua nação para impedir a invasão italiana durante a segunda grande guerra. Ele é o guerreiro que organiza e une as forças líbias para enfrentar as tropas italianas de invasão que sob o comando general RODOLFO GRAZIANI (Oliver Reed) e ordens diretas do Ditador Italiano BENITO MUSSOLINE (Rod Steiger), tentam estabelecer uma base de operações em solo Líbio. Porém, com coragem e liderança de MUKHTAR e suas tropas de Beduínos a cavalo, eles enfrentam os tanques e armas do exército Italiano, até que finalmente o destino coloca MUKHTAR, frente-a-frente com a Morte.


imdb.com
Omar Mukhtar - Löwe der Wüste (1980)

Capa
Sinopse:In the Fascist Italy Pre-World War II of Benito Mussolini, the cruel General Rodolfo Graziani is directly assigned by Il Duce to fight in the colonial war in Libya to vanquish the Arab ...
Pontuação:8.4
Duração:173 minutos
Idioma:English
Realizador:Moustapha Akkad
Actores:Anthony Quinn, Oliver Reed, Irene Papas, Raf Vallone, Rod Steiger
  
Fonte:http://www.imdb.com/title/tt0081059
Última Actualização:Segunda Março 12, 2018 03:53


Imagem


Código: Selecionar todos

General
Complete name                            : D:\eMule\Lion.of.the.Desert.(1981).[TheRostrum.net].avi
Format                                   : AVI
Format/Info                              : Audio Video Interleave
File size                                : 1.35 GiB
Duration                                 : 2h 42mn
Overall bit rate                         : 1 189 Kbps
Writing application                      : VirtualDubMod 1.5.10.2 (build 2540/release)
Writing library                          : VirtualDubMod build 2540/release

Video
ID                                       : 0
Format                                   : MPEG-4 Visual
Format settings, BVOP                    : 1
Format settings, QPel                    : No
Format settings, GMC                     : No warppoints
Format settings, Matrix                  : Default (H.263)
Muxing mode                              : Packed bitstream
Codec ID                                 : DX50
Codec ID/Hint                            : DivX 5
Duration                                 : 2h 42mn
Bit rate                                 : 1 068 Kbps
Width                                    : 640 pixels
Height                                   : 272 pixels
Display aspect ratio                     : 2.35:1
Frame rate                               : 23.976 fps
Color space                              : YUV
Chroma subsampling                       : 4:2:0
Bit depth                                : 8 bits
Scan type                                : Progressive
Compression mode                         : Lossy
Bits/(Pixel*Frame)                       : 0.256
Stream size                              : 1.21 GiB (90%)
Writing library                          : DivX 5.2.1 (WaffleDay) (UTC 2004-09-08)

Audio
ID                                       : 1
Format                                   : MPEG Audio
Format version                           : Version 1
Format profile                           : Layer 3
Mode                                     : Joint stereo
Mode extension                           : MS Stereo
Codec ID                                 : 55
Codec ID/Hint                            : MP3
Duration                                 : 2h 42mn
Bit rate mode                            : Constant
Bit rate                                 : 112 Kbps
Channel(s)                               : 2 channels
Sampling rate                            : 48.0 KHz
Compression mode                         : Lossy
Stream size                              : 130 MiB (9%)
Alignment                                : Split accross interleaves
Interleave, duration                     : 42 ms (1.00 video frame)
Interleave, preload duration             : 500 ms






...::: Legenda em Italiano embutida :::...



Imagem
ed2k: Lion.of.the.Desert.(1981).avi  [1.35 Gb]
lion.of.the.desert.(1981).pob.1cd.(3512666).zip
Não tem Permissão para ver os ficheiros anexados nesta mensagem.

cousivinny
Utilizador
Utilizador
Mensagens: 18
Registado: 29 jun 2009, 16:21

Re: Lion of the Desert (1981) *DVDRip*

Mensagem por cousivinny » 04 jan 2013, 12:52

excelente esta mescla de clássicos e novos filmes que estacionam por aqui diariamente. entretanto, é duro admitir que é como estar diante de um suntuoso banquete, e ter apenas uma boca para comer... quando tudo que se deseja é devorar tudo....
mesmo assim....obrigaduuuuuuuuuuuuuuuuuuuuuuuuuuuuuuuuuuuuuuu!!!!!!!!

Responder
  • Tópicos Semelhantes
    Respostas
    Visualizações
    Última Mensagem

Voltar para “Filmes Arquivados // Filed Movies (Com Legendas/With Subtitles)”