La Reine Margot (1994) *DVDRip*

Filmes lançados no ano de 2012 e anos anteriores. / Movies launched in the year of 2012 and previous. (Retail DVD)

Moderador: Moderador

Responder
Avatar do Utilizador
arf100c
eMuleCoop
eMuleCoop
Mensagens: 7275
Registado: 08 jun 2009, 15:48

La Reine Margot (1994) *DVDRip*

Mensagem por arf100c » 19 dez 2012, 17:21




Sinopse
No século XVI um casamento de conveniência é celebrado com o intuito de manter a paz. A união entre a católica Marguerite de Valois, a rainha Margot (Isabelle Adjani), e o nobre protestante Henri de Navarre (Daniel Auteuil) tinha como meta unir duas tendências religiosas. O objetivo do casamento foi tão polà­tico que os noivos não são obrigados a dormirem juntos. As intrigas palacianas vão culminar com a Noite de São Bartolomeu, na qual milhares de protestantes foram mortos. Após isto Margot acaba se envolvendo com um protestante que está sendo perseguido.


imdb.com
Queen Margot (1994)

Capa
Sinopse:Young Queen Margot finds herself trapped in an arranged marriage amidst a religious war between Catholics and Protestants. She hopes to escape with a new lover, but finds herself imprisoned by her powerful and ruthless family.
Pontuação:7.5
Duração:159 minutos
Idioma:French, Italian
Realizador:Patrice Chéreau
Actores:Isabelle Adjani, Daniel Auteuil, Jean-Hugues Anglade, Vincent Perez, Virna Lisi
  
Fonte:http://www.imdb.com/title/tt0110963
Última Actualização:Segunda Março 12, 2018 04:34


Código: Selecionar todos

       General
          Format : AVI
          Format/Info : Audio Video Interleave
          File size : 1.37 GiB
          Duration : 2h 17mn
          Overall bit rate : 1 428 Kbps
          Writing library : VirtualDub build 18160/release
       Video #0
          ID : 0
          Format : MPEG-4 Visual
          Format settings, BVOP : No
          Format settings, QPel : No
          Format settings, GMC : No warppoints
          Format settings, Matrix : Default (H.263)
          Codec ID : XVID
          Codec ID/Hint : XviD
          Duration : 2h 17mn
          Bit rate : 1 194 Kbps
          Width : 640 pixels
          Height : 352 pixels
          Display aspect ratio : 16:9
          Frame rate : 25.000 fps
          Resolution : 24 bits
          Colorimetry : 4:2:0
          Scan type : Progressive
          Bits/(Pixel*Frame) : 0.212
          Stream size : 1.14 GiB (84%)
       Audio #1
          ID : 1
          Format : AC-3
          Format/Info : Audio Coding 3
          Codec ID : 2000
          Duration : 2h 17mn
          Bit rate mode : Constant
          Bit rate : 224 Kbps
          Channel(s) : 2 channels
          Channel positions : L R
          Sampling rate : 48.0 KHz
          Video delay : 16ms
          Stream size : 220 MiB (16%)
          Alignment : Split accross interleaves
          Interleave, duration : 40 ms (1.00 video frame)
          Interleave, preload duration : 500 ms






ed2k: La.Reine.Margot.(1994).avi  [1.37 Gb]
Não tem Permissão para ver os ficheiros anexados nesta mensagem.

Responder
  • Tópicos Semelhantes
    Respostas
    Visualizações
    Última Mensagem

Voltar para “Filmes Arquivados // Filed Movies (Com Legendas/With Subtitles)”