Everyone Says I Love You (1996) *DVDRip*

Filmes lançados no ano de 2012 e anos anteriores. / Movies launched in the year of 2012 and previous. (Retail DVD)

Moderador: Moderador

Responder
Avatar do Utilizador
arf100c
eMuleCoop
eMuleCoop
Mensagens: 7379
Registado: 08 jun 2009, 15:48

Everyone Says I Love You (1996) *DVDRip*

Mensagem por arf100c » 19 jan 2013, 21:33

Imagem

Sinopse
Holden (Edward Norton) e Skylar (Drew Barrymore) estão apaixonados. Skylar vive em Manhattan com a sua grande família, onde Bob (Alan Alda) e Steffi (Goldie Hawn), os seus pais, estão casados há muitos anos. Joe (Woody Allen), um amigo da família, tem uma filha, DJ (Natasha Lyonne), com Steffi. Após outra relação fracassada, Joe está sozinho novamente. Ele voa para Veneza e lá conhece Von (Julia Roberts), a quem faz acreditar que ele é o homem de sua vida. Mas a felicidade de Joe é passageira, pois após algum tempo depois Von volta para o seu marido. Enquanto isso, Steffi dedica parte do seu tempo em obras de caridade e consegue fazer com que Holden e Skylar rompam a relação ao apresenta-los Charles Ferry (Tim Roth), um preso recém-libertado.
imdb.com
Everyone Says I Love You (1996)

Capa
Sinopse:A New York girl sets her father up with a beautiful woman in a troubled marriage while her stepsister gets engaged.
Pontuação:6.8
Duração:101 minutos
Idioma:English
Realizador:Woody Allen
Actores:Edward Norton, Drew Barrymore, Diva Gray, Ami Almendral, Madeline Balmaceda
  
Fonte:http://www.imdb.com/title/tt0116242
Última Actualização:Segunda Março 12, 2018 04:39

Código: Selecionar todos

General
Complete name                            : F:\Incoming\Everyone.Says.I.Love.you.(1996).DVDRip.DivX.[TheRostrum.net].avi
Format                                   : AVI
Format/Info                              : Audio Video Interleave
File size                                : 698 MiB
Duration                                 : 1 h 40 min
Overall bit rate mode                    : Variable
Overall bit rate                         : 966 kb/s
Writing application                      : Nandub v1.0rc2
Writing library                          : Nandub build 1853/release

Video
ID                                       : 0
Format                                   : MPEG-4 Visual
Codec ID                                 : DIV3
Codec ID/Hint                            : DivX 3 Low
Duration                                 : 1 h 40 min
Bit rate                                 : 824 kb/s
Width                                    : 640 pixels
Height                                   : 352 pixels
Display aspect ratio                     : 16:9
Frame rate                               : 23.976 (24000/1001) FPS
Color space                              : YUV
Chroma subsampling                       : 4:2:0
Bit depth                                : 8 bits
Compression mode                         : Lossy
Bits/(Pixel*Frame)                       : 0.153
Stream size                              : 595 MiB (85%)

Audio
ID                                       : 1
Format                                   : MPEG Audio
Format version                           : Version 1
Format profile                           : Layer 3
Codec ID                                 : 55
Codec ID/Hint                            : MP3
Duration                                 : 1 h 40 min
Bit rate mode                            : Variable
Bit rate                                 : 128 kb/s
Channel(s)                               : 2 channels
Sampling rate                            : 48.0 kHz
Compression mode                         : Lossy
Stream size                              : 93.4 MiB (13%)
Alignment                                : Aligned on interleaves
Interleave, duration                     : 24  ms (0.58 video frame)
Interleave, preload duration             : 380  ms



Imagem Imagem
Imagem Imagem
Imagem Imagem


ed2k: Everyone.Says.I.Love.you.(1996).DVDRip.DivX.[TheRostrum.net].avi  [697.79 Mb]
Não tem Permissão para ver os ficheiros anexados nesta mensagem.

Avatar do Utilizador
tainacan
Utilizador
Utilizador
Mensagens: 490
Registado: 05 mai 2011, 06:04

Re: Everyone Says I Love You (1996) *DVDRip*

Mensagem por tainacan » 11 mar 2019, 13:00

:baloes: :baloes: :baloes:

:cavalinho: :cavalinho: :cavalinho:

Responder

Voltar para “Filmes Arquivados // Filed Movies (Com Legendas/With Subtitles)”