Friends With Benefits (2011) *576p BDRip* - WHiiZz

Filmes lançados em 2013 e anos seguintes. / Movies launched in 2013 and following years. (Retail DVD)

Moderador: Moderador

Responder
Avatar do Utilizador
wh0p5y
eMuleCoop
eMuleCoop
Mensagens: 5185
Registado: 14 fev 2010, 10:21
Localização: Right Here

Friends With Benefits (2011) *576p BDRip* - WHiiZz

Mensagem por wh0p5y » 16 nov 2011, 03:15




Synopsis
Dylan e Jamie pensam que vai ser fácil manter a sua amizade, adicionando um ingrediente extra... o sexo. No entanto, rapidamente vão descobrir que uma relação física traz sempre complicações.

A young female headhunter (Mila Kunis) in New York convinces a potential recruit (Justin Timberlake) to leave his job in San Francisco behind and accept a job in the big apple. Despite an attraction to each other, both realize they’re everything they’ve been running from in a relationship and decide to become friends…with benefits. It’s the perfect arrangement–until they realize there’s no such thing as no strings attached.


imdb.com
Friends with Benefits (2011)

Capa
Sinopse:A young man and woman decide to take their friendship to the next level without becoming a couple, but soon discover that adding sex only leads to complications.
Pontuação:6.6
Duração:109 minutos
Idioma:English
Realizador:Will Gluck
Actores:Justin Timberlake, Mila Kunis, Patricia Clarkson, Jenna Elfman, Bryan Greenberg
  
Fonte:http://www.imdb.com/title/tt1632708
Última Actualização:Segunda Março 12, 2018 09:47


Código: Selecionar todos

General
Complete name                    : Friends.With.Benefits.(2011).576p.BRRip.XviD.AC3-WHiiZz.avi
Format                           : AVI
Format/Info                      : Audio Video Interleave
Format profile                   : OpenDML
File size                        : 2.25 GiB
Duration                         : 1h 49mn
Overall bit rate                 : 2 949 Kbps
Writing application              : VirtualDubMod 1.5.10.2 (build 2540/release)
Writing library                  : VirtualDubMod build 2540/release

Video
ID                               : 0
Format                           : MPEG-4 Visual
Format profile                   : Advanced Simple@L5
Format settings, BVOP            : 2
Format settings, QPel            : No
Format settings, GMC             : No warppoints
Format settings, Matrix          : Custom
Codec ID                         : XVID
Codec ID/Hint                    : XviD
Duration                         : 1h 49mn
Bit rate                         : 2 489 Kbps
Width                            : 1 024 pixels
Height                           : 428 pixels
Display aspect ratio             : 2.40:1
Frame rate                       : 23.976 fps
Color space                      : YUV
Chroma subsampling               : 4:2:0
Bit depth                        : 8 bits
Scan type                        : Progressive
Compression mode                 : Lossy
Bits/(Pixel*Frame)               : 0.237
Stream size                      : 1.90 GiB (84%)
Writing library                  : XviD 1.2.1 (UTC 2008-12-04)

Audio
ID                               : 1
Format                           : AC-3
Format/Info                      : Audio Coding 3
Mode extension                   : CM (complete main)
Codec ID                         : 2000
Duration                         : 1h 49mn
Bit rate mode                    : Constant
Bit rate                         : 448 Kbps
Channel(s)                       : 6 channels
Channel positions                : Front: L C R, Side: L R, LFE
Sampling rate                    : 48.0 KHz
Bit depth                        : 16 bits
Compression mode                 : Lossy
Stream size                      : 351 MiB (15%)
Alignment                        : Split accross interleaves
Interleave, duration             : 42 ms (1.00 video frame)
Interleave, preload duration     : 500 ms




Imagem

Imagem

Imagem

Imagem

Imagem

Imagem


ed2k: Friends.With.Benefits.(2011).576p.BRRip.XviD.AC3-WHiiZz.avi  [2.25 Gb]
Friends.With.Benefits.(2011).576p.BRRip.XviD.AC3-WHiiZz.rar
Imagem
Imagem
UPLOADER

Responder

Voltar para “Filmes Recentes // Recent Movies (Com Legendas/With Subtitles)”