The Change-Up (2011) *UNRATED BDRip* - WHiiZz

Filmes lançados em 2013 e anos seguintes. / Movies launched in 2013 and following years. (Retail DVD)

Moderador: Moderador

Responder
Avatar do Utilizador
quiZZical
eMulePoster
eMulePoster
Mensagens: 4861
Registado: 28 jul 2011, 19:30

The Change-Up (2011) *UNRATED BDRip* - WHiiZz

Mensagem por quiZZical » 28 out 2011, 23:40




Synopsis
Mitch e Dave eram amigos inseparáveis, cresceram juntos, mas com o passar dos anos foram tomando caminhos diferentes. Enquanto Dave é um advogado muito ocupado, casado e pai de três filhos, Mitch continua solteiro, semi-empregado e infantil, não sabendo o peso da responsabilidade. Para Mitch, Dave tem tudo: a bela mulher Jamie, filhos que o adoram e um excelente ordenado numa prestigiada empresa. Para Dave, viver a despreocupada vida de Mitch, sem obrigações ou consequências, seria um sonho tornado realidade. Depois de uma noite nos copos, os mundos de Mitch e Dave são postos de pernas para o ar quando acordam e descobrem que trocaram de corpo… e começam-se a passar! Apesar da liberdade das suas rotinas e hábitos, rapidamente se apercebem que a vida de cada um não é o mar de rosas que parecia ser. Para complicar tudo existe ainda a parceira de negócios sexy de Dave, Sabrina, e o pai afastado de Mitch. O tempo não está do lado deles e terão de comicamente debater-se por não destruir a vida um do outro, antes de arranjar maneira de voltar a recuperar a sua própria vida.

Growing up together, Mitch (Ryan Reynolds) and Dave (Jason Bateman) were inseparable best friends, but as the years have passed they've slowly drifted apart. While Dave is an overworked lawyer, husband and father of three, Mitch has remained a single, quasi-employed man-child who has never met a responsibility he liked. To Mitch, Dave has it all: beautiful wife Jamie (Leslie Mann), kids who adore him and a high-paying job at a prestigious law firm. To Dave, living Mitch's stress-free life without obligation or consequence would be a dream come true. Following a drunken night out together, Mitch and Dave's worlds are turned upside down when they wake up in each other's bodies and proceed to freak out. Despite the freedom from their normal routines and habits, the guys soon discover that each other's lives are nowhere near as rosy as they once seemed. Further complicating matters are Dave's sexy legal associate...


imdb.com
The Change-Up (2011)

Capa
Sinopse:Dave is a married man with three kids and a loving wife, and Mitch is a single man who is at the prime of his sexual life. One fateful night while Mitch and Dave are peeing in a fountain, lightning strikes and they switch bodies.
Pontuação:6.3
Duração:112 minutos
Idioma:English, Ukrainian
Realizador:David Dobkin
Actores:Ryan Reynolds, Jason Bateman, Leslie Mann, Olivia Wilde, Alan Arkin
  
Fonte:http://www.imdb.com/title/tt1488555
Última Actualização:Segunda Março 12, 2018 11:23


Código: Selecionar todos

General
Complete name                    : The.Change.Up.(2011).UNRATED.576p.BRRip.XviD.AC3-WHiiZz.avi
Format                           : AVI
Format/Info                      : Audio Video Interleave
Format profile                   : OpenDML
File size                        : 2.40 GiB
Duration                         : 1h 58mn
Overall bit rate                 : 2 913 Kbps
Writing application              : VirtualDubMod 1.5.10.2 (build 2540/release)
Writing library                  : VirtualDubMod build 2540/release

Video
ID                               : 0
Format                           : MPEG-4 Visual
Format profile                   : Advanced Simple@L5
Format settings, BVOP            : 2
Format settings, QPel            : No
Format settings, GMC             : No warppoints
Format settings, Matrix          : Custom
Codec ID                         : XVID
Codec ID/Hint                    : XviD
Duration                         : 1h 58mn
Bit rate                         : 2 454 Kbps
Width                            : 1 024 pixels
Height                           : 422 pixels
Display aspect ratio             : 2.40:1
Frame rate                       : 23.976 fps
Color space                      : YUV
Chroma subsampling               : 4:2:0
Bit depth                        : 8 bits
Scan type                        : Progressive
Compression mode                 : Lossy
Bits/(Pixel*Frame)               : 0.237
Stream size                      : 2.03 GiB (84%)
Writing library                  : XviD 1.2.1 (UTC 2008-12-04)

Audio
ID                               : 1
Format                           : AC-3
Format/Info                      : Audio Coding 3
Mode extension                   : CM (complete main)
Codec ID                         : 2000
Duration                         : 1h 58mn
Bit rate mode                    : Constant
Bit rate                         : 448 Kbps
Channel(s)                       : 6 channels
Channel positions                : Front: L C R, Side: L R, LFE
Sampling rate                    : 48.0 KHz
Bit depth                        : 16 bits
Compression mode                 : Lossy
Stream size                      : 379 MiB (15%)
Alignment                        : Split accross interleaves
Interleave, duration             : 42 ms (1.00 video frame)
Interleave, preload duration     : 500 ms





















ed2k: The.Change.Up.(2011).UNRATED.576p.BRRip.XviD.AC3-WHiiZz.avi  [2.40 Gb]
The.Change.Up.(2011).UNRATED.576p.BRRip.XviD.AC3-WHiiZz.rar

Responder

Voltar para “Filmes Recentes // Recent Movies (Com Legendas/With Subtitles)”