Super 8 (2011) *576p BDRip* - WHiiZz

Filmes lançados em 2013 e anos seguintes. / Movies launched in 2013 and following years. (Retail DVD)

Moderador: Moderador

Responder
Avatar do Utilizador
wh0p5y
eMuleCoop
eMuleCoop
Mensagens: 5176
Registado: 14 fev 2010, 10:21
Localização: Right Here

Super 8 (2011) *576p BDRip* - WHiiZz

Mensagem por wh0p5y » 23 out 2011, 23:40




Synopsis
No Verão de 1979, um grupo de amigos na pequena localidade do Ohio, testemunham um catastrófico desastre de comboio enquanto filmavam um filme em super 8 e depressa se apercebem que afinal não foi um acidente. Pouco depois, invulgares desaparecimentos e situações inexplicáveis começam a ocorrer e as entidades locais tentam descobrir a verdade - algo mais aterrorizador do que alguma vez se tinha pensado.

In the summer of 1979, a group of friends in a small Ohio town witness a catastrophic train crash while making a super 8 movie and soon suspect that it was not an accident. Shortly after, unusual disappearances and inexplicable events begin to take place in town, and the local Deputy tries to uncover the truth - something more terrifying than any of them could have imagined.


imdb.com
Super 8 (2011)

Capa
Sinopse:During the summer of 1979, a group of friends witness a train crash and investigate subsequent unexplained events in their small town.
Pontuação:7.0
Duração:112 minutos
Idioma:English
Realizador:J.J. Abrams
Actores:Joel Courtney, Jessica Tuck, Joel McKinnon Miller, Ryan Lee, Zach Mills
  
Fonte:http://www.imdb.com/title/tt1650062
Última Actualização:Segunda Março 12, 2018 09:23


Código: Selecionar todos

General
Complete name                    : Super.8.(2011).576p.BRRip.XviD.AC3-WHiiZz.avi
Format                           : AVI
Format/Info                      : Audio Video Interleave
Format profile                   : OpenDML
File size                        : 2.50 GiB
Duration                         : 1h 51mn
Overall bit rate                 : 3 206 Kbps
Writing application              : VirtualDubMod 1.5.10.2 (build 2540/release)
Writing library                  : VirtualDubMod build 2540/release

Video
ID                               : 0
Format                           : MPEG-4 Visual
Format profile                   : Advanced Simple@L5
Format settings, BVOP            : 2
Format settings, QPel            : No
Format settings, GMC             : No warppoints
Format settings, Matrix          : Custom
Codec ID                         : XVID
Codec ID/Hint                    : XviD
Duration                         : 1h 51mn
Bit rate                         : 2 747 Kbps
Width                            : 1 024 pixels
Height                           : 426 pixels
Display aspect ratio             : 2.40:1
Frame rate                       : 23.976 fps
Color space                      : YUV
Chroma subsampling               : 4:2:0
Bit depth                        : 8 bits
Scan type                        : Progressive
Compression mode                 : Lossy
Bits/(Pixel*Frame)               : 0.263
Stream size                      : 2.15 GiB (86%)
Writing library                  : XviD 1.2.1 (UTC 2008-12-04)

Audio
ID                               : 1
Format                           : AC-3
Format/Info                      : Audio Coding 3
Mode extension                   : CM (complete main)
Codec ID                         : 2000
Duration                         : 1h 51mn
Bit rate mode                    : Constant
Bit rate                         : 448 Kbps
Channel(s)                       : 6 channels
Channel positions                : Front: L C R, Side: L R, LFE
Sampling rate                    : 48.0 KHz
Bit depth                        : 16 bits
Compression mode                 : Lossy
Stream size                      : 358 MiB (14%)
Alignment                        : Split accross interleaves
Interleave, duration             : 42 ms (1.00 video frame)
Interleave, preload duration     : 500 ms



















ed2k: Super.8.(2011).576p.BRRip.XviD.AC3-WHiiZz.avi  [2.50 Gb]
Super.8.(2011).576p.BRRip.XviD.AC3-WHiiZz.rar
Imagem
Imagem
UPLOADER

Responder

Voltar para “Filmes Recentes // Recent Movies (Com Legendas/With Subtitles)”